TORRENTS45.XYZ

Скачать Тима и Тома (2015) WEBRip (1-12 серии)


Тима и Тома (2015) WEBRip [H.264/1080p-LQ] (1-12 серии)
Производство: Россия, Студия анимации «Петербург»
Жанр: Мультсериал, детский

Режиссер: Анна Борисова

Описание:
«Тима и Тома» – новый совместный проект ЗАО «Детский канал» и ГК «Рики», производства Студии Компьютерной Анимации «Петербург». Сериал создан для дошкольников - фантазёров и мечтателей, для которых мир полон приключений, а границы между хорошим и плохим пока размыты. Характеры главных персонажей сериала настолько правдоподобны, что маленькие зрители легко узнают в них себя, открывая мир и понимая, как отличать хорошее от плохого. ТИМА И ТОМА – верные друзья. Они живут в игрушечном мире, полном чудес и веселых соседей. Этот уютный мир – отражение игры за дверьми детской комнаты, в которой правят дети, оживляя своей фантазией любимые игрушки – слоненка Тому и бегемотика Тиму. Но если в игру дети не так уж часто пускают взрослых, то здесь вход для родителей всегда открыт - шутки и приключения наших героев будут интересны и им.

Продолжительность: 12 x ~ 00:05:00
Качество видео: WEBRip

Видео: 720x400 (16:9), 25.000 fps, ~1400 Kbps (0.203 bit/pixel)
Аудио: AC-3, 48.0 KHz, 2 ch, 192 Kbps, CBR

Список серий:

01. День Рождения
02. Барабан
03. Большая Уборка
04. Силачи
05. Посуда
06. Не спится
07. Кто смелый
08. Девчонок не берем
09. Кошелек
10. Грибной дождик
11. Конкурс рисунков
12. Новогоднее чудо

Mediainfo:

Код: выделить все

Complete name                            : \Тима и Тома\01 серия. День Рождения.avi
Format                                   : AVI
Format/Info                              : Audio Video Interleave
File size                                : 59.6 MiB
Duration                                 : 4mn 59s
Overall bit rate                         : 1 668 Kbps
Writing application                      : Lavf54.63.104

Video
ID                                       : 0
Format                                   : xvid
Codec ID                                 : xvid
Duration                                 : 4mn 59s
Bit rate                                 : 1 465 Kbps
Width                                    : 720 pixels
Height                                   : 400 pixels
Display aspect ratio                     : 16:9
Frame rate                               : 25.000 fps
Bits/(Pixel*Frame)                       : 0.203
Stream size                              : 52.3 MiB (88%)

Audio
ID                                       : 1
Format                                   : AC-3
Format/Info                              : Audio Coding 3
Mode extension                           : CM (complete main)
Format settings, Endianness              : Big
Codec ID                                 : 2000
Duration                                 : 4mn 59s
Bit rate mode                            : Constant
Bit rate                                 : 192 Kbps
Channel(s)                               : 2 channels
Channel positions                        : Front: L R
Sampling rate                            : 48.0 KHz
Bit depth                                : 16 bits
Compression mode                         : Lossy
Stream size                              : 6.86 MiB (12%)
Alignment                                : Aligned on interleaves
Interleave, duration                     : 32 ms (0.80 video frame)
Скриншоты:


Все релизы Тима и Тома (2015) на Torrents45.xyz
Смотрите также другие мои раздачи
Детали торрента:
Название:Тима и Тома (2015) WEBRip (1-12 серии)
Дата добавления:20 Янв 2016 20:19:42
Размер:664 MB
Раздают:5
Качают:0
Форум:Отечественные Мультфильмы для детей

All rights reserved © 2015-2019