TORRENTS45.XYZ

Скачать Вверх ногами, или Где-то в том лесу. Сборник мультфильмов (2015) DVDRip


Вверх ногами, или Где-то в том лесу. Сборник мультфильмов (2015) DVDRip
Производство: Россия, «КиноДетство»
Жанр: Короткометражные, Детский

Режиссеры: Андрей Соколов, Дмитрий Резчиков, Юлия Дащинская, Елена Чернова, Антон Дьяков, Юлия Поставская, Алена Оятьева, Татьяна Киселёва

Описание:
7 коротких мультисторий: «Эволюция Петра Сенцова», «Важнее не бывает», «Вверх ногами», «Румпельштильцхен», «Петрушечка», «А где-то в том лесу», «Толстый и тонкий».



Дата премьеры в России: 25 июля 2015

Продолжительность: 00:58:01
Качество видео: DVDRip

Видео: Xvid, 720x400, 720х544, ~2249 Кбит/с
Аудио: AC3, MP3, 2 - 6 ch, 192 - 384 Кбит/с
Семпл: Скачать

Описания мультфильмов:

1. «Эволюция Петра Сенцова»

Описание:
Веселый фантастический фильм о приключениях мальчика-двоечника, попавшего с помощью машины времени в доисторическую эпоху.

Продолжительность: 00:13:11
Видео: Xvid, 704x400, ~2240 Кбит/с
Аудио: AC3, 6 ch, 384 Кбит/с

Mediainfo:

Код: выделить все

 Общее
Полное имя                               : D:\FILMЬl\2016 MONK\Вверх ногами, или Где-то в том лесу\1. Эволюция Петра Сенцова.avi
Формат                                   : AVI
Формат/Информация                        : Audio Video Interleave
Размер файла                             : 248 Мбайт
Продолжительность                        : 13 м.
Общий поток                              : 2633 Кбит/сек
Программа кодирования                    : VirtualDubMod 1.5.10.3 | www.virtualdub-fr.org || (build 2550/release)
Библиотека кодирования                   : VirtualDubMod build 2550/release

Видео
Идентификатор                            : 0
Формат                                   : MPEG-4 Visual
Профиль формата                          : Advanced Simple@L5
Параметр BVOP формата                    : 2
Параметр QPel формата                    : Нет
Параметр GMC формата                     : Без точки перехода
Параметр матрицы формата                 : Выборочная
Идентификатор кодека                     : XVID
Идентификатор кодека/Подсказка           : XviD
Продолжительность                        : 13 м.
Битрейт                                  : 2240 Кбит/сек
Ширина                                   : 704 пикселя
Высота                                   : 400 пикселей
Соотношение сторон                       : 16:9
Частота кадров                           : 25,000 кадров/сек
Цветовое пространство                    : YUV
Субдискретизация насыщенности            : 4:2:0
Битовая глубина                          : 8 бит
Тип развёртки                            : Прогрессивная
Метод сжатия                             : С потерями
Бит/(Пиксели*Кадры)                      : 0.318
Размер потока                            : 211 Мбайт (85%)
Библиотека кодирования                   : XviD 64

Аудио
Идентификатор                            : 1
Формат                                   : AC-3
Формат/Информация                        : Audio Coding 3
Расширение режима                        : CM (complete main)
Параметр Endianness формата              : Big
Идентификатор кодека                     : 2000
Продолжительность                        : 13 м.
Вид битрейта                             : Постоянный
Битрейт                                  : 384 Кбит/сек
Каналы                                   : 6 каналов
Расположение каналов                     : Front: L C R, Side: L R, LFE
Частота                                  : 48,0 КГц
Метод сжатия                             : С потерями
Размер потока                            : 36,2 Мбайт (15%)
Выравнивание                             : Разделение по промежуткам
Продолжительность промежутка             : 40  мс. (1,00 видеокадр)
Время предзагрузки промежутка            : 500  мс.

Скриншоты:

2. «Важнее не бывает»

Описание:
Бабушка пришла к внуку посидеть с ним, пока родители ушли по своим делам. Фантазия мальчика переворачивает ситуацию с ног на голову: оказывается, именно бабушка нуждается в наблюдении и опеке.

Продолжительность: 00:06:43
Видео: Xvid, 720x400, ~2120 Кбит/с
Аудио: AC3, 2 ch, 192 Кбит/с

Mediainfo:

Код: выделить все

Общее
Полное имя                               : D:\FILMЬl\2016 MONK\Вверх ногами, или Где-то в том лесу\2. Важнее не бывает.avi
Формат                                   : AVI
Формат/Информация                        : Audio Video Interleave
Размер файла                             : 112 Мбайт
Продолжительность                        : 6 м. 43 с.
Общий поток                              : 2324 Кбит/сек
Программа кодирования                    : MEncoder SVN-r30881(20100311-gcc4.3.3)
Библиотека кодирования                   : MPlayer

Видео
Идентификатор                            : 0
Формат                                   : MPEG-4 Visual
Профиль формата                          : Advanced Simple@L5
Параметр BVOP формата                    : 2
Параметр QPel формата                    : Нет
Параметр GMC формата                     : Без точки перехода
Параметр матрицы формата                 : Default (H.263)
Идентификатор кодека                     : XVID
Идентификатор кодека/Подсказка           : XviD
Продолжительность                        : 6 м. 43 с.
Битрейт                                  : 2120 Кбит/сек
Ширина                                   : 720 пикселей
Высота                                   : 400 пикселей
Соотношение сторон                       : 16:9
Соотношение сторон в оригинале           : 16:9
Частота кадров                           : 25,000 кадров/сек
Цветовое пространство                    : YUV
Субдискретизация насыщенности            : 4:2:0
Битовая глубина                          : 8 бит
Тип развёртки                            : Прогрессивная
Метод сжатия                             : С потерями
Бит/(Пиксели*Кадры)                      : 0.294
Размер потока                            : 102 Мбайт (91%)
Библиотека кодирования                   : XviD 1.2.1 (UTC 2008-12-04)

Аудио
Идентификатор                            : 1
Формат                                   : MPEG Audio
Версия формата                           : Version 1
Профиль формата                          : Layer 3
Режим                                    : Joint stereo
Расширение режима                        : MS Stereo
Идентификатор кодека                     : 55
Идентификатор кодека/Подсказка           : MP3
Продолжительность                        : 6 м. 43 с.
Вид битрейта                             : Постоянный
Битрейт                                  : 192 Кбит/сек
Каналы                                   : 2 канала
Частота                                  : 44,1 КГц
Метод сжатия                             : С потерями
Задержка видео                           : 40 мс.
Размер потока                            : 9,23 Мбайт (8%)
Выравнивание                             : Соединение по промежуткам
Продолжительность промежутка             : 26  мс. (0,65 видеокадр)
Время предзагрузки промежутка            : 522  мс.
Библиотека кодирования                   : LAME3.98

Скриншоты:

3. «Вверх ногами»

Описание:
Веселый фантастический фильм о приключениях мальчика-двоечника, попавшего с помощью машины времени в доисторическую эпоху.

Продолжительность: 00:05:06
Видео: Xvid, 720x544, ~2390 Кбит/с
Аудио: AC3, 2 ch, 192 Кбит/с

Mediainfo:

Код: выделить все

Общее
Полное имя                               : D:\FILMЬl\2016 MONK\Вверх ногами, или Где-то в том лесу\3. Вверх ногами.avi
Формат                                   : AVI
Формат/Информация                        : Audio Video Interleave
Размер файла                             : 94,8 Мбайт
Продолжительность                        : 5 м. 6 с.
Общий поток                              : 2592 Кбит/сек
Программа кодирования                    : VirtualDubMod 1.5.10.2 (build 2540/release)
Библиотека кодирования                   : VirtualDubMod build 2540/release

Видео
Идентификатор                            : 0
Формат                                   : MPEG-4 Visual
Профиль формата                          : Advanced Simple@L5
Параметр BVOP формата                    : 2
Параметр QPel формата                    : Нет
Параметр GMC формата                     : Без точки перехода
Параметр матрицы формата                 : Выборочная
Режим смешивания                         : Сжатый битовый поток
Идентификатор кодека                     : XVID
Идентификатор кодека/Подсказка           : XviD
Продолжительность                        : 5 м. 6 с.
Битрейт                                  : 2390 Кбит/сек
Ширина                                   : 720 пикселей
Высота                                   : 544 пикселя
Соотношение сторон                       : 4:3
Частота кадров                           : 25,000 кадров/сек
Цветовое пространство                    : YUV
Субдискретизация насыщенности            : 4:2:0
Битовая глубина                          : 8 бит
Тип развёртки                            : Прогрессивная
Метод сжатия                             : С потерями
Бит/(Пиксели*Кадры)                      : 0.244
Размер потока                            : 87,4 Мбайт (92%)
Библиотека кодирования                   : XviD 64

Аудио
Идентификатор                            : 1
Формат                                   : AC-3
Формат/Информация                        : Audio Coding 3
Расширение режима                        : CM (complete main)
Параметр Endianness формата              : Big
Идентификатор кодека                     : 2000
Продолжительность                        : 5 м. 6 с.
Вид битрейта                             : Постоянный
Битрейт                                  : 192 Кбит/сек
Каналы                                   : 2 канала
Расположение каналов                     : Front: L R
Частота                                  : 48,0 КГц
Метод сжатия                             : С потерями
Размер потока                            : 7,02 Мбайт (7%)
Выравнивание                             : Разделение по промежуткам
Продолжительность промежутка             : 40  мс. (1,00 видеокадр)
Время предзагрузки промежутка            : 500  мс.

Скриншоты:

4. «Румпельштильцхен»

Описание:
История про Мельникову дочь и одного из жителей подземного мира.

Продолжительность: 00:12:53
Видео: Xvid, 704x528, ~2223 Кбит/с
Аудио: AC3, 2 ch, 192 Кбит/с

Mediainfo:

Код: выделить все

Общее
Полное имя                               : D:\FILMЬl\2016 MONK\Вверх ногами, или Где-то в том лесу\4. Румпельштильцхен.avi
Формат                                   : AVI
Формат/Информация                        : Audio Video Interleave
Размер файла                             : 223 Мбайт
Продолжительность                        : 12 м.
Общий поток                              : 2421 Кбит/сек

Видео
Идентификатор                            : 0
Формат                                   : MPEG-4 Visual
Профиль формата                          : Advanced Simple@L5
Параметр BVOP формата                    : 2
Параметр QPel формата                    : Нет
Параметр GMC формата                     : Без точки перехода
Параметр матрицы формата                 : Default (H.263)
Режим смешивания                         : Сжатый битовый поток
Идентификатор кодека                     : XVID
Идентификатор кодека/Подсказка           : XviD
Продолжительность                        : 12 м.
Битрейт                                  : 2223 Кбит/сек
Ширина                                   : 704 пикселя
Высота                                   : 528 пикселей
Соотношение сторон                       : 4:3
Частота кадров                           : 25,000 кадров/сек
Цветовое пространство                    : YUV
Субдискретизация насыщенности            : 4:2:0
Битовая глубина                          : 8 бит
Тип развёртки                            : Прогрессивная
Метод сжатия                             : С потерями
Бит/(Пиксели*Кадры)                      : 0.239
Размер потока                            : 205 Мбайт (92%)
Библиотека кодирования                   : XviD 1.2.1 (UTC 2008-12-04)

Аудио
Идентификатор                            : 1
Формат                                   : AC-3
Формат/Информация                        : Audio Coding 3
Расширение режима                        : CM (complete main)
Параметр Endianness формата              : Big
Идентификатор кодека                     : 2000
Продолжительность                        : 12 м.
Вид битрейта                             : Постоянный
Битрейт                                  : 192 Кбит/сек
Каналы                                   : 2 канала
Расположение каналов                     : Front: L R
Частота                                  : 48,0 КГц
Метод сжатия                             : С потерями
Размер потока                            : 17,7 Мбайт (8%)
Выравнивание                             : Соединение по промежуткам
Продолжительность промежутка             : 200  мс. (5,00 видеокадров)

Скриншоты:

5. «Петрушечка»

Описание:
Мультфильм по мотивам итальянской сказки "Петрушечка" о приключениях девочки, попавшей к злой колдунье.

Продолжительность: 00:08:37
Видео: Xvid, 720x400, ~1404 Кбит/с
Аудио: MP3, 2 ch, 192 Кбит/с

Mediainfo:

Код: выделить все

Общее
Полное имя                               : D:\FILMЬl\2016 MONK\Вверх ногами, или Где-то в том лесу\5. Петрушечка.avi
Формат                                   : AVI
Формат/Информация                        : Audio Video Interleave
Размер файла                             : 99,2 Мбайт
Продолжительность                        : 8 м. 37 с.
Общий поток                              : 1609 Кбит/сек
Программа кодирования                    : MEncoder SVN-r30881(20100311-gcc4.3.3)
Библиотека кодирования                   : MPlayer

Видео
Идентификатор                            : 0
Формат                                   : MPEG-4 Visual
Профиль формата                          : Advanced Simple@L5
Параметр BVOP формата                    : 2
Параметр QPel формата                    : Нет
Параметр GMC формата                     : Без точки перехода
Параметр матрицы формата                 : Default (H.263)
Идентификатор кодека                     : XVID
Идентификатор кодека/Подсказка           : XviD
Продолжительность                        : 8 м. 37 с.
Битрейт                                  : 1404 Кбит/сек
Ширина                                   : 720 пикселей
Высота                                   : 400 пикселей
Соотношение сторон                       : 16:9
Соотношение сторон в оригинале           : 16:9
Частота кадров                           : 25,000 кадров/сек
Цветовое пространство                    : YUV
Субдискретизация насыщенности            : 4:2:0
Битовая глубина                          : 8 бит
Тип развёртки                            : Прогрессивная
Метод сжатия                             : С потерями
Бит/(Пиксели*Кадры)                      : 0.195
Размер потока                            : 86,6 Мбайт (87%)
Библиотека кодирования                   : XviD 1.2.1 (UTC 2008-12-04)

Аудио
Идентификатор                            : 1
Формат                                   : MPEG Audio
Версия формата                           : Version 1
Профиль формата                          : Layer 3
Режим                                    : Joint stereo
Расширение режима                        : MS Stereo
Идентификатор кодека                     : 55
Идентификатор кодека/Подсказка           : MP3
Продолжительность                        : 8 м. 37 с.
Вид битрейта                             : Постоянный
Битрейт                                  : 192 Кбит/сек
Каналы                                   : 2 канала
Частота                                  : 44,1 КГц
Метод сжатия                             : С потерями
Задержка видео                           : 40 мс.
Размер потока                            : 11,8 Мбайт (12%)
Выравнивание                             : Соединение по промежуткам
Продолжительность промежутка             : 26  мс. (0,65 видеокадр)
Время предзагрузки промежутка            : 522  мс.
Библиотека кодирования                   : LAME3.98

Скриншоты:

6. «А где-то в том лесу»

Описание:
Мультфильм про приключения внука Бабы Яги.

Продолжительность: 00:06:56
Видео: Xvid, 720x400, ~1737 Кбит/с
Аудио: MP3, 2 ch, 192 Кбит/с

Mediainfo:

Код: выделить все

Общее
Полное имя                               : D:\FILMЬl\2016 MONK\Вверх ногами, или Где-то в том лесу\6. А где-то в том лесу.avi
Формат                                   : AVI
Формат/Информация                        : Audio Video Interleave
Размер файла                             : 96,2 Мбайт
Продолжительность                        : 6 м. 55 с.
Общий поток                              : 1941 Кбит/сек
Программа кодирования                    : MEncoder SVN-r30881(20100311-gcc4.3.3)
Библиотека кодирования                   : MPlayer

Видео
Идентификатор                            : 0
Формат                                   : MPEG-4 Visual
Профиль формата                          : Advanced Simple@L5
Параметр BVOP формата                    : 2
Параметр QPel формата                    : Нет
Параметр GMC формата                     : Без точки перехода
Параметр матрицы формата                 : Default (H.263)
Идентификатор кодека                     : XVID
Идентификатор кодека/Подсказка           : XviD
Продолжительность                        : 6 м. 55 с.
Битрейт                                  : 1737 Кбит/сек
Ширина                                   : 720 пикселей
Высота                                   : 400 пикселей
Соотношение сторон                       : 1,85:1
Соотношение сторон в оригинале           : 16:9
Частота кадров                           : 25,000 кадров/сек
Цветовое пространство                    : YUV
Субдискретизация насыщенности            : 4:2:0
Битовая глубина                          : 8 бит
Тип развёртки                            : Прогрессивная
Метод сжатия                             : С потерями
Бит/(Пиксели*Кадры)                      : 0.241
Размер потока                            : 86,1 Мбайт (89%)
Библиотека кодирования                   : XviD 1.2.1 (UTC 2008-12-04)

Аудио
Идентификатор                            : 1
Формат                                   : MPEG Audio
Версия формата                           : Version 1
Профиль формата                          : Layer 3
Режим                                    : Joint stereo
Идентификатор кодека                     : 55
Идентификатор кодека/Подсказка           : MP3
Продолжительность                        : 6 м. 55 с.
Вид битрейта                             : Постоянный
Битрейт                                  : 192 Кбит/сек
Каналы                                   : 2 канала
Частота                                  : 44,1 КГц
Метод сжатия                             : С потерями
Задержка видео                           : 40 мс.
Размер потока                            : 9,52 Мбайт (10%)
Выравнивание                             : Соединение по промежуткам
Продолжительность промежутка             : 26  мс. (0,65 видеокадр)
Время предзагрузки промежутка            : 522  мс.
Библиотека кодирования                   : LAME3.98

Скриншоты:

7. «Толстый и тонкий»

Описание:
Мультфильм по сюжету сатирического рассказа русского писателя Антона Павловича Чехова.

Продолжительность: 00:04:28
Видео: Xvid, 720x544, ~2362 Кбит/с
Аудио: AC3, 2 ch, 192 Кбит/с

Mediainfo:

Код: выделить все

Общее
Полное имя                               : D:\FILMЬl\2016 MONK\Вверх ногами, или Где-то в том лесу\7. Толстый и тонкий.avi
Формат                                   : AVI
Формат/Информация                        : Audio Video Interleave
Размер файла                             : 82,0 Мбайт
Продолжительность                        : 4 м. 28 с.
Общий поток                              : 2564 Кбит/сек
Программа кодирования                    : VirtualDubMod 1.5.10.2 (build 2540/release)
Библиотека кодирования                   : VirtualDubMod build 2540/release

Видео
Идентификатор                            : 0
Формат                                   : MPEG-4 Visual
Профиль формата                          : Advanced Simple@L5
Параметр BVOP формата                    : 2
Параметр QPel формата                    : Нет
Параметр GMC формата                     : Без точки перехода
Параметр матрицы формата                 : Выборочная
Режим смешивания                         : Сжатый битовый поток
Идентификатор кодека                     : XVID
Идентификатор кодека/Подсказка           : XviD
Продолжительность                        : 4 м. 28 с.
Битрейт                                  : 2362 Кбит/сек
Ширина                                   : 720 пикселей
Высота                                   : 544 пикселя
Соотношение сторон                       : 4:3
Частота кадров                           : 25,000 кадров/сек
Цветовое пространство                    : YUV
Субдискретизация насыщенности            : 4:2:0
Битовая глубина                          : 8 бит
Тип развёртки                            : Прогрессивная
Метод сжатия                             : С потерями
Бит/(Пиксели*Кадры)                      : 0.241
Размер потока                            : 75,5 Мбайт (92%)
Библиотека кодирования                   : XviD 64

Аудио
Идентификатор                            : 1
Формат                                   : AC-3
Формат/Информация                        : Audio Coding 3
Расширение режима                        : CM (complete main)
Параметр Endianness формата              : Big
Идентификатор кодека                     : 2000
Продолжительность                        : 4 м. 28 с.
Вид битрейта                             : Постоянный
Битрейт                                  : 192 Кбит/сек
Каналы                                   : 2 канала
Расположение каналов                     : Front: L R
Частота                                  : 48,0 КГц
Метод сжатия                             : С потерями
Размер потока                            : 6,14 Мбайт (7%)
Выравнивание                             : Разделение по промежуткам
Продолжительность промежутка             : 40  мс. (1,00 видеокадр)
Время предзагрузки промежутка            : 500  мс.

Скриншоты:

Скриншоты:


Все релизы "Вверх ногами, или Где-то в том лесу." на Torrents45.xyz
Детали торрента:
Название:Вверх ногами, или Где-то в том лесу. Сборник мультфильмов (2015) DVDRip
Дата добавления:16 Янв 2016 20:49:44
Размер:955 MB
Раздают:3
Качают:0
Форум:Отечественные Мультфильмы (HD, UHD, UHD-LQ, DVD, Сборники)

All rights reserved © 2015-2018