TORRENTS45.XYZ

Скачать Хоккей. НХЛ 2015-2016. Аризона - Эдмонтон. (13.01.2016) HDTVRip [H.264/720p-LQ]


Хоккей. НХЛ 2015-2016. Аризона - Эдмонтон. (13.01.2016) HDTVRip [H.264/720p-LQ]
Телекомпания: FOX Sports
Жанр: Спорт
Язык комментариев: английский

Описание:
13 января 2016, среда. 05:00 МСК

Стадион: Хила Ривер-Арена (Глендейл, США) , 11 391 зритель (64 % при вместимости 17 799)
Главный судья: Франсис Шаррон (Канада)
Главный судья: Дэйв Джексон (США)

Продолжительность: 02:00:54
Качество видео: HDTVRip
Формат видео: mp4
Автор рипа: Pdimon2001

Видео: AVC/H.264, 1280x720, ~2921 Kbps, 29.97 fps
Аудио: AAC, 2 ch, 128 Kbps

Mediainfo:

Код:

Общее
Полное имя                               : J:\ХОККЕЙ\NHL\Хоккей. НХЛ 2015-2016. Аризона - Эдмонтон. 13.01.2016. 720p.mp4
Формат                                   : MPEG-4
Профиль формата                          : Base Media
Идентификатор кодека                     : isom (isom/avc1)
Размер файла                             : 2,47 Гбайт
Продолжительность                        : 2 ч. 0 м.
Режим общего битрейта                    : Переменный
Общий поток                              : 2921 Кбит/сек
Дата кодирования                         : UTC 2016-01-12 05:39:00
Дата пометки                             : UTC 2016-01-12 05:39:00

Видео
Идентификатор                            : 1
Формат                                   : AVC
Формат/Информация                        : Advanced Video Codec
Профиль формата                          : Main@L3.2
Параметр CABAC формата                   : Да
Параметр ReFrames формата                : 3 кадра
Идентификатор кодека                     : avc1
Идентификатор кодека/Информация          : Advanced Video Coding
Продолжительность                        : 2 ч. 0 м.
Битрейт                                  : 2789 Кбит/сек
Ширина                                   : 1280 пикселей
Высота                                   : 720 пикселей
Соотношение сторон                       : 16:9
Режим частоты кадров                     : Постоянный
Частота кадров                           : 29,970 (30000/1001) кадров/сек
Частота кадров в оригинале               : 29,970 (29970/1000) кадров/сек
Цветовое пространство                    : YUV
Субдискретизация насыщенности            : 4:2:0
Битовая глубина                          : 8 бит
Тип развёртки                            : Прогрессивная
Бит/(Пиксели*Кадры)                      : 0.101
Размер потока                            : 2,36 Гбайт (95%)
Заголовок                                : NeuLion MP4 - Video
Дата кодирования                         : UTC 2016-01-12 05:39:03
Дата пометки                             : UTC 2016-01-12 06:32:25

Аудио
Идентификатор                            : 2
Формат                                   : AAC
Формат/Информация                        : Advanced Audio Codec
Профиль формата                          : LC
Идентификатор кодека                     : 40
Продолжительность                        : 2 ч. 0 м.
Вид битрейта                             : Переменный
Битрейт                                  : 126 Кбит/сек
Каналы                                   : 2 канала
Расположение каналов                     : Front: L R
Частота                                  : 44,1 КГц
Частота кадров                           : 43,066 кадра/сек (1024 spf)
Метод сжатия                             : С потерями
Размер потока                            : 109 Мбайт (4%)
Заголовок                                : NeuLion MP4 - Audio
Дата кодирования                         : UTC 2016-01-12 05:39:03
Дата пометки                             : UTC 2016-01-12 06:32:25

Текст
Идентификатор                            : 1-CC1
Формат                                   : EIA-608
Режим смешивания                         : SCTE 128 / DTVCC Transport
Режим смешивания, доп. информация        : Muxed in Video #1
Продолжительность                        : 2 ч. 0 м.
Вид битрейта                             : Постоянный
Размер потока                            : 0,00 байт (0%)
Закодированный размер потока             : 0,00 байт (0%)

Прочее
Идентификатор                            : 3
Тип                                      : Data
Формат                                   : amf0
Идентификатор кодека                     : amf0
Продолжительность                        : 2 ч. 0 м.
Заголовок                                : NeuLion MP4 - AMF
Язык                                     : English
Дата кодирования                         : UTC 2016-01-12 06:32:24
Дата пометки                             : UTC 2016-01-12 06:32:25
Вид битрейта                             : VBR
Скриншоты:


Детали торрента:
Название:Хоккей. НХЛ 2015-2016. Аризона - Эдмонтон. (13.01.2016) HDTVRip [H.264/720p-LQ]
Дата добавления:13 Янв 2016 18:04:29
Размер:2,47 GB
Раздают:
Качают:0
Форум:Архив Документалистики и TV

All rights reserved © 2015-2018