TORRENTS45.XYZ

Скачать Инстинкт: В верёвках безумия / Visceral: Entre las cuerdas de la locura (2012) DVDRip [H.264] [SP / EN Sub]


Инстинкт: В верёвках безумия / Visceral: Entre las cuerdas de la locura (2012) DVDRip [H.264] [SP / EN Sub]
Производство: Чили
Жанр: Ужасы

Режиссер: Фелипе Элути
Актеры: Фелипе Элути, Хосе Мануэль Гарсиа, Каролина Селлз, Валентина Варела

Описание:
Проигравший свой самый важный поединок боксер медленно сходит с ума. Выброшенному на обочину жизни бывшему спортсмену в видениях является чудовищная женская фигура, которая мучает его, заставляя делать ужасные вещи наяву. В реальном мире тот, кто еще недавно выходил на ринг, похищает молодых мужчин и женщин, которые затем умирают от его рук после жестоких пыток.



Продолжительность: 01:16:41
Качество видео: DVDRip
Перевод: Отсутствует
Язык озвучки: Испанский
Язык субтитров: Английский
Вид субтитров: Вшитые

Видео: AVC/H.264, 720x404, ~1194 Kbps
Аудио: AAC, 2 ch, 128 Kbps, VBR

Mediainfo:

Код:

General
Complete name                  : I:\Downloads\Visceral Entre las cuerdas de la locura (2012).mp4
Format                         : MPEG-4
Format profile                 : Base Media / Version 2
Codec ID                       : mp42
File size                      : 729 MiB
Duration                       : 1h 16mn
Overall bit rate mode          : Variable
Overall bit rate               : 1 328 Kbps
Movie name                     : Visceral - Between the Ropes of Madness.2012.DVDRip.RR
Album                          : VISCERAL
Encoded date                   : UTC 2015-04-16 21:09:24
Tagged date                    : UTC 2015-04-16 21:16:21
Writing application            : DVDFab 9.1.9.5
covr                           : Unknown kind of value!

Video
ID                             : 1
Format                         : AVC
Format/Info                    : Advanced Video Codec
Format profile                 : Main@L3
Format settings, CABAC         : Yes
Format settings, ReFrames      : 1 frame
Format settings, GOP           : M=1, N=24
Codec ID                       : avc1
Codec ID/Info                  : Advanced Video Coding
Duration                       : 1h 16mn
Bit rate                       : 1 194 Kbps
Width                          : 720 pixels
Height                         : 404 pixels
Display aspect ratio           : 16:9
Frame rate mode                : Constant
Frame rate                     : 23.976 fps
Color space                    : YUV
Chroma subsampling             : 4:2:0
Bit depth                      : 8 bits
Scan type                      : Progressive
Bits/(Pixel*Frame)             : 0.171
Stream size                    : 655 MiB (90%)
Writing library                : x264 core 142
Encoding settings              : cabac=1 / ref=1 / deblock=1:0:0 / analyse=0x1:0x111 / me=umh / subme=6 / psy=0 / mixed_ref=0 / me_range=12 / chroma_me=1 / trellis=0 / 8x8dct=0 / cqm=0 / deadzone=21,11 / fast_pskip=1 / chroma_qp_offset=0 / threads=8 / lookahead_threads=1 / sliced_threads=0 / nr=0 / decimate=1 / interlaced=0 / bluray_compat=0 / constrained_intra=0 / bframes=0 / weightp=0 / keyint=24 / keyint_min=13 / scenecut=40 / intra_refresh=0 / rc=2pass / mbtree=0 / bitrate=1194 / ratetol=1.0 / qcomp=0.60 / qpmin=0 / qpmax=69 / qpstep=4 / cplxblur=20.0 / qblur=0.5 / ip_ratio=1.40 / aq=1:1.00
Encoded date                   : UTC 2015-04-16 21:09:24
Tagged date                    : UTC 2015-04-16 21:16:21
Color range                    : Limited
Color primaries                : BT.601 NTSC
Transfer characteristics       : BT.709
Matrix coefficients            : BT.601

Audio
ID                             : 2
Format                         : AAC
Format/Info                    : Advanced Audio Codec
Format profile                 : LC
Codec ID                       : 40
Duration                       : 1h 16mn
Bit rate mode                  : Variable
Bit rate                       : 128 Kbps
Maximum bit rate               : 132 Kbps
Channel(s)                     : 2 channels
Channel positions              : Front: L R
Sampling rate                  : 48.0 KHz
Compression mode               : Lossy
Stream size                    : 70.2 MiB (10%)
Title                          : English (aac 2.0)
Language                       : English
Encoded date                   : UTC 2015-04-16 21:09:24
Tagged date                    : UTC 2015-04-16 21:16:21

Text
ID                             : 3
Format                         : mp4s
Codec ID                       : E0
Duration                       : 1h 4mn
Bit rate mode                  : Variable
Bit rate                       : 453 bps
Maximum bit rate               : 3 884 Mbps
Stream size                    : 213 KiB (0%)
Language                       : English
Encoded date                   : UTC 2015-04-16 21:09:24
Tagged date                    : UTC 2015-04-16 21:15:14

Menu
ID                             : 4
Codec ID                       : text
Duration                       : 1h 16mn
Encoded date                   : UTC 2015-04-16 21:09:24
Tagged date                    : UTC 2015-04-16 21:16:21
Source duration                : 4600513
Source frame count             : 12
Source stream size             : 279
Frame count                    : 12
Stream size                    : 279
Bit rate mode                  : VBR
Скриншоты:


Детали торрента:
Название:Инстинкт: В верёвках безумия / Visceral: Entre las cuerdas de la locura (2012) DVDRip [H.264] [SP / EN Sub]
Дата добавления:09 Янв 2016 12:39:06
Размер:729 MB
Раздают:
Качают:0
Форум:Фильмы в оригинале

All rights reserved © 2015-2018