TORRENTS45.XYZ

Скачать Eligh - 80 HRTZ (2015) [FLAC|Lossless|tracks + .cue] <Hip Hop>


Eligh - 80 HRTZ (2015)
Производство: Crowsnest – CWNT186
Страна: USA
Год: 2015
Жанр: Hip Hop
Продолжительность: 01:05:44

Кодек: FLAC
Битрейт: Lossless
Тип рипа: tracks + .cue


Треклист:
01. Henchman (2:44)
02. Hello (3:17)
03. 808 (3:03)
04. On My Lap (feat. Andre Nickatina) (3:42)
05. Don't Be Mad (2:55)
06. Pacman (3:54)
07. Pretty_Teeth (feat. Ashley Mazanec and Robert Miranda) (4:27)
08. Kin With Silver Skin (feat. Abstract Rude) (3:59)
09. Get Like Me (feat. Busdriver, Nietzsche Cortez, Open Mike Eagle) (5:16)
10. If I Still Smoked (3:19)
11. The Boss (2:54)
12. That's My Seat (feat. Locksmith) (3:52)
13. Duality (feat. Eamon) (3:50)
14. Clouds_ + Hidden Bonus Track (18:32)

Отчёт ЕАС:

Код:
Exact Audio Copy V1.1 from 23. June 2015

EAC extraction logfile from 14. August 2015, 1:45

Eligh / 80 HRTZ

Used drive  : ATAPI   iHBS312   2   Adapter: 1  ID: 0

Read mode               : Secure
Utilize accurate stream : Yes
Defeat audio cache      : Yes
Make use of C2 pointers : No

Read offset correction                      : 6
Overread into Lead-In and Lead-Out          : No
Fill up missing offset samples with silence : Yes
Delete leading and trailing silent blocks   : No
Null samples used in CRC calculations       : Yes
Used interface                              : Native Win32 interface for Win NT & 2000
Gap handling                                : Appended to previous track

Used output format              : User Defined Encoder
Selected bitrate                : 896 kBit/s
Quality                         : High
Add ID3 tag                     : No
Command line compressor         : C:\Program Files (x86)\Exact Audio Copy\Flac\flac.exe
Additional command line options : -8 -V -T "artist=%artist%" -T "title=%title%" -T "album=%albumtitle%" -T "date=%year%" -T "tracknumber=%tracknr%" -T "genre=%genre%" %source%

TOC of the extracted CD

     Track |   Start  |  Length  | Start sector | End sector
    ---------------------------------------------------------
        1  |  0:00.00 |  2:44.25 |         0    |    12324
        2  |  2:44.25 |  3:16.54 |     12325    |    27078
        3  |  6:01.04 |  3:02.57 |     27079    |    40785
        4  |  9:03.61 |  3:41.69 |     40786    |    57429
        5  | 12:45.55 |  2:55.14 |     57430    |    70568
        6  | 15:40.69 |  3:53.52 |     70569    |    88095
        7  | 19:34.46 |  4:26.46 |     88096    |   108091
        8  | 24:01.17 |  3:59.20 |    108092    |   126036
        9  | 28:00.37 |  5:15.42 |    126037    |   149703
       10  | 33:16.04 |  3:19.22 |    149704    |   164650
       11  | 36:35.26 |  2:54.33 |    164651    |   177733
       12  | 39:29.59 |  3:51.74 |    177734    |   195132
       13  | 43:21.58 |  3:50.05 |    195133    |   212387
       14  | 47:11.63 | 18:32.01 |    212388    |   295788

Track  1

     Filename C:\EAC Rips\FLAC\Eligh - 80 HRTZ\01 - Henchman.wav

     Pre-gap length  0:00:02.00

     Peak level 96.6 %
     Extraction speed 1.2 X
     Track quality 99.9 %
     Test CRC 0EEAE540
     Copy CRC 0EEAE540
     Track not present in AccurateRip database
     Copy OK

Track  2

     Filename C:\EAC Rips\FLAC\Eligh - 80 HRTZ\02 - Hello.wav

     Peak level 96.7 %
     Extraction speed 2.0 X
     Track quality 100.0 %
     Test CRC EEC0D2FF
     Copy CRC EEC0D2FF
     Track not present in AccurateRip database
     Copy OK

Track  3

     Filename C:\EAC Rips\FLAC\Eligh - 80 HRTZ\03 - 808.wav

     Peak level 96.6 %
     Extraction speed 2.1 X
     Track quality 100.0 %
     Test CRC CE461D53
     Copy CRC CE461D53
     Track not present in AccurateRip database
     Copy OK

Track  4

     Filename C:\EAC Rips\FLAC\Eligh - 80 HRTZ\04 - On My Lap - Feat. Andre Nickatina.wav

     Peak level 96.7 %
     Extraction speed 2.3 X
     Track quality 100.0 %
     Test CRC D2799AD4
     Copy CRC D2799AD4
     Track not present in AccurateRip database
     Copy OK

Track  5

     Filename C:\EAC Rips\FLAC\Eligh - 80 HRTZ\05 - Don't Be Mad.wav

     Peak level 96.6 %
     Extraction speed 2.4 X
     Track quality 100.0 %
     Test CRC 957F3F2E
     Copy CRC 957F3F2E
     Track not present in AccurateRip database
     Copy OK

Track  6

     Filename C:\EAC Rips\FLAC\Eligh - 80 HRTZ\06 - Pacman.wav

     Peak level 96.6 %
     Extraction speed 1.9 X
     Track quality 99.9 %
     Test CRC 1CDFE150
     Copy CRC 1CDFE150
     Track not present in AccurateRip database
     Copy OK

Track  7

     Filename C:\EAC Rips\FLAC\Eligh - 80 HRTZ\07 - Pretty_Teeth - Feat. Ashley Mazanec and Robert Miranda.wav

     Peak level 96.6 %
     Extraction speed 2.8 X
     Track quality 100.0 %
     Test CRC 87DA8D2F
     Copy CRC 87DA8D2F
     Track not present in AccurateRip database
     Copy OK

Track  8

     Filename C:\EAC Rips\FLAC\Eligh - 80 HRTZ\08 - Kin With Silver Skin - Feat. Abstract Rude.wav

     Peak level 96.7 %
     Extraction speed 3.0 X
     Track quality 100.0 %
     Test CRC A4F552D0
     Copy CRC A4F552D0
     Track not present in AccurateRip database
     Copy OK

Track  9

     Filename C:\EAC Rips\FLAC\Eligh - 80 HRTZ\09 - Get Like Me - Feat. Busdriver, Nietzsche Cortez, Open Mike Eagle.wav

     Peak level 96.6 %
     Extraction speed 3.2 X
     Track quality 100.0 %
     Test CRC 5EDC11DA
     Copy CRC 5EDC11DA
     Track not present in AccurateRip database
     Copy OK

Track 10

     Filename C:\EAC Rips\FLAC\Eligh - 80 HRTZ\10 - If I Still Smoked.wav

     Peak level 96.6 %
     Extraction speed 3.2 X
     Track quality 100.0 %
     Test CRC 82689F7E
     Copy CRC 82689F7E
     Track not present in AccurateRip database
     Copy OK

Track 11

     Filename C:\EAC Rips\FLAC\Eligh - 80 HRTZ\11 - The Boss.wav

     Peak level 96.6 %
     Extraction speed 3.2 X
     Track quality 100.0 %
     Test CRC A7B35C55
     Copy CRC A7B35C55
     Track not present in AccurateRip database
     Copy OK

Track 12

     Filename C:\EAC Rips\FLAC\Eligh - 80 HRTZ\12 - That's My Seat - Feat. Locksmith.wav

     Peak level 96.8 %
     Extraction speed 3.4 X
     Track quality 100.0 %
     Test CRC C5D6961C
     Copy CRC C5D6961C
     Track not present in AccurateRip database
     Copy OK

Track 13

     Filename C:\EAC Rips\FLAC\Eligh - 80 HRTZ\13 - Duality - Feat. Eamon.wav

     Peak level 96.6 %
     Extraction speed 2.6 X
     Track quality 99.9 %
     Test CRC 7FC07CAD
     Copy CRC 7FC07CAD
     Track not present in AccurateRip database
     Copy OK

Track 14

     Filename C:\EAC Rips\FLAC\Eligh - 80 HRTZ\14 - Clouds_.wav

     Peak level 96.8 %
     Extraction speed 4.3 X
     Track quality 100.0 %
     Test CRC CD459DD0
     Copy CRC CD459DD0
     Track not present in AccurateRip database
     Copy OK

None of the tracks are present in the AccurateRip database

No errors occurred

End of status report

---- CUETools DB Plugin V2.1.6

[CTDB TOCID: Efmx8yglWssneWB7JoDv9eP6nqs-] disk not present in database
Submit result: Efmx8yglWssneWB7JoDv9eP6nqs- has been uploaded

==== Log checksum 52DED5F70441A187DE6A96BBB9CC8E224024961D7A941632ED7A1F85D3B988EB ====

Отчёт auCDtect Task manager:

Код:
-----------------------

DON'T MODIFY THIS FILE

-----------------------

PERFORMER: auCDtect Task Manager, ver. 1.6.0 RC1 build 1.6.0.1
Copyright (c) 2008-2010 y-soft. All rights reserved
http://y-soft.org

ANALYZER: auCDtect: CD records authenticity detector, version 0.8.2
Copyright (c) 2004 Oleg Berngardt. All rights reserved.
Copyright (c) 2004 Alexander Djourik. All rights reserved.

FILE: 14 - Clouds_.flac
  Size: 115556535 Hash: 95D09446A51682EE606ECFF7C216676A Accuracy: -m0
  Conclusion: CDDA 100%
  Signature: 2E18E5D60C483D49EBEECD4D46B0FCB3342522C6
FILE: 13 - Duality - Feat. Eamon.flac
  Size: 28970325 Hash: B96E302A545BFC91CBC6B529EA88E0A8 Accuracy: -m0
  Conclusion: CDDA 100%
  Signature: 9BD58B181186C3D9A360A033934411AF54652521
FILE: 12 - That's My Seat - Feat. Locksmith.flac
  Size: 24424443 Hash: 8E9C8672375D458181B370660E9D4DBD Accuracy: -m0
  Conclusion: CDDA 99%
  Signature: 61731172BDBCEA59E6210D292009F4713FB6E7C0
FILE: 11 - The Boss.flac
  Size: 20151178 Hash: BE0BFFD88ACBCAFC69EE96A913DA16D2 Accuracy: -m0
  Conclusion: CDDA 100%
  Signature: C080BCF39D96CABD822A29886156C453239A7ED3
FILE: 10 - If I Still Smoked.flac
  Size: 22536452 Hash: 89C869454BAE89AE5B39C92CBAE953D9 Accuracy: -m0
  Conclusion: CDDA 100%
  Signature: 84ACF53FBC4A03F763A667DC59E0CC5AAAF0AD8B
FILE: 09 - Get Like Me - Feat. Busdriver, Nietzsche Cortez, Open Mike Eagle.flac
  Size: 39262518 Hash: 698C4EB9E79102C29968B05AFC787CE0 Accuracy: -m0
  Conclusion: CDDA 100%
  Signature: F9D05E86BDA711AD54B51200442726A1124C4747
FILE: 08 - Kin With Silver Skin - Feat. Abstract Rude.flac
  Size: 29003571 Hash: A4639CD6B88DE7FA84FF5D49E95A7D2E Accuracy: -m0
  Conclusion: CDDA 100%
  Signature: 71DBA1EC2F5A8B16FA0711F122746892EE104016
FILE: 07 - Pretty_Teeth - Feat. Ashley Mazanec and Robert Miranda.flac
  Size: 26223316 Hash: D844EBE6EE6231ACD7681267D1DBB46F Accuracy: -m0
  Conclusion: CDDA 100%
  Signature: 09BA7C2481BF994B657F7DE7B2E57536D7C67844
FILE: 06 - Pacman.flac
  Size: 24638998 Hash: A1A6E6A9A37CFD9FE7CE9100A58CA008 Accuracy: -m0
  Conclusion: CDDA 100%
  Signature: FAF5263043D1618685E4ADFF49DF945E9750E587
FILE: 05 - Don't Be Mad.flac
  Size: 19510125 Hash: 2CB6D383668C07CE99CF30D0E59A7CAE Accuracy: -m0
  Conclusion: CDDA 100%
  Signature: 38C66210DC59750958898E8CA1859AAA376994D9
FILE: 04 - On My Lap - Feat. Andre Nickatina.flac
  Size: 24799847 Hash: 6239D5004D5EC1A297BA152F3BBC482D Accuracy: -m0
  Conclusion: CDDA 100%
  Signature: 29DF17E56658C2E90067F2521253CB6F2F6E1FF3
FILE: 03 - 808.flac
  Size: 20230512 Hash: C25713207B71AE885CBE9BCB4454AFB0 Accuracy: -m0
  Conclusion: CDDA 100%
  Signature: D7117FC81D4CA3D4BBC86B79C7369B7EAFA171EF
FILE: 02 - Hello.flac
  Size: 21226653 Hash: 4A285F13D8613089B02420B47DD44BAD Accuracy: -m0
  Conclusion: CDDA 100%
  Signature: 92C27D9DCD57DADD49E1D17E32E84A735F834EE5
FILE: 01 - Henchman.flac
  Size: 16836477 Hash: A6B73000CA01B5AE9522B8BD6608DA9B Accuracy: -m0
  Conclusion: CDDA 100%
  Signature: D529BBA63EA75A6EA41D64FCE62D8FE3316B2991

Cue Sheet (.cue):

Код:
REM GENRE "Hip Hop"
REM DATE 2015
REM DISCID CE0F670E
REM COMMENT "ExactAudioCopy v1.1"
PERFORMER "Eligh"
TITLE "80 HRTZ"
FILE "01 - Henchman.wav" WAVE
  TRACK 01 AUDIO
    TITLE "Henchman"
    PERFORMER "Eligh"
    ISRC QMCT41500001
    INDEX 01 00:00:00
FILE "02 - Hello.wav" WAVE
  TRACK 02 AUDIO
    TITLE "Hello"
    PERFORMER "Eligh"
    ISRC QMCT41500002
    INDEX 01 00:00:00
FILE "03 - 808.wav" WAVE
  TRACK 03 AUDIO
    TITLE "808"
    PERFORMER "Eligh"
    ISRC QMCT41500003
    INDEX 01 00:00:00
FILE "04 - On My Lap - Feat. Andre Nickatina.wav" WAVE
  TRACK 04 AUDIO
    TITLE "On My Lap - Feat. Andre Nickatina"
    PERFORMER "Eligh"
    ISRC QMCT41500004
    INDEX 01 00:00:00
FILE "05 - Don't Be Mad.wav" WAVE
  TRACK 05 AUDIO
    TITLE "Don't Be Mad"
    PERFORMER "Eligh"
    ISRC QMCT41500005
    INDEX 01 00:00:00
FILE "06 - Pacman.wav" WAVE
  TRACK 06 AUDIO
    TITLE "Pacman"
    PERFORMER "Eligh"
    ISRC QMCT41500006
    INDEX 01 00:00:00
FILE "07 - Pretty_Teeth - Feat. Ashley Mazanec and Robert Miranda.wav" WAVE
  TRACK 07 AUDIO
    TITLE "Pretty_Teeth - Feat. Ashley Mazanec and Robert Miranda"
    PERFORMER "Eligh"
    ISRC QMCT41500007
    INDEX 01 00:00:00
FILE "08 - Kin With Silver Skin - Feat. Abstract Rude.wav" WAVE
  TRACK 08 AUDIO
    TITLE "Kin With Silver Skin - Feat. Abstract Rude"
    PERFORMER "Eligh"
    ISRC QMCT41500008
    INDEX 01 00:00:00
FILE "09 - Get Like Me - Feat. Busdriver, Nietzsche Cortez, Open Mike Eagle.wav" WAVE
  TRACK 09 AUDIO
    TITLE "Get Like Me - Feat. Busdriver, Nietzsche Cortez, Open Mike Eagle"
    PERFORMER "Eligh"
    ISRC QMCT41500009
    INDEX 01 00:00:00
FILE "10 - If I Still Smoked.wav" WAVE
  TRACK 10 AUDIO
    TITLE "If I Still Smoked"
    PERFORMER "Eligh"
    ISRC QMCT41500010
    INDEX 01 00:00:00
FILE "11 - The Boss.wav" WAVE
  TRACK 11 AUDIO
    TITLE "The Boss"
    PERFORMER "Eligh"
    ISRC QMCT41500011
    INDEX 01 00:00:00
FILE "12 - That's My Seat - Feat. Locksmith.wav" WAVE
  TRACK 12 AUDIO
    TITLE "That's My Seat - Feat. Locksmith"
    PERFORMER "Eligh"
    ISRC QMCT41500015
    INDEX 01 00:00:00
FILE "13 - Duality - Feat. Eamon.wav" WAVE
  TRACK 13 AUDIO
    TITLE "Duality - Feat. Eamon"
    PERFORMER "Eligh"
    ISRC QMCT41500012
    INDEX 01 00:00:00
FILE "14 - Clouds_.wav" WAVE
  TRACK 14 AUDIO
    TITLE "Clouds_"
    PERFORMER "Eligh"
    ISRC QMCT41500013
    INDEX 01 00:00:00
YouTube YouTube
Детали торрента:
Название:Eligh - 80 HRTZ (2015) [FLAC|Lossless|tracks + .cue] <Hip Hop>
Дата добавления:07 Янв 2016 16:42:06
Размер:418 MB
Раздают:
Качают:0
Форум:Rap, Hip-hop зарубежный (Lossless)

All rights reserved © 2015-2018