TORRENTS45.XYZ

Скачать Viasat History: Как климат изменил ход истории / How Climate Made History (2015) SATRip (серии 1-2 из 2)


Viasat History: Как климат изменил ход истории / How Climate Made History (2015) SATRip
Жанр: Документальный, климат, история
Страна: Германия, Story House for ZDF

Режиссер: Sigrun Laste

Описание:
Последнее время создается впечатление, что стихийные бедствия с каждым годом по своей силе превосходят все наши ожидания: губительные засухи, невероятные потопы, тающие полярные льды и разрушающие ураганы. Программа расскажет о том, как изменения рельефа и расположения материков, светимости солнца, образования горных цепей сформировали климат Земли. Мы также узнаем, каким образом сегодня человек влияет на изменение погодных условий, и к чему нам стоит быть готовыми в будущем.

Продолжительность: 00:51:39
Качество видео: SATRip

Перевод: Одноголосый закадровый, профессиональный
Переведено и озвучено на студии "SDI Media", перевод Т. Вишневской, текст читает Виктория Бабанова



Видео: Xvid, 704x400, ~1800 kbps
Аудио: AC3, 2 ch, 192 kbps

Список серий:

1 серия: В этой части мы узнаем, как формирование нашей планеты, ее положение по отношению к солнцу и рождение горных цепей способствовали созданию уникального климата Земли.
2 серия: В этой части мы узнаем, каким образом сегодня человек влияет на изменение климата и к чему нам стоит быть готовыми в будущем.

Mediainfo:

Код:

Format : AVI
Format/Info : Audio Video Interleave
File size : 738 MiB
Duration : 51mn 38s
Overall bit rate : 1 997 Kbps
Writing application : TMPGEnc Video Mastering Works 5 Version. 5.0.6.38
Writing library : TMPGEnc Video Mastering Works 5 Version. 5.0.6.38

Video
ID : 0
Format : MPEG-4 Visual
Format profile : Advanced Simple@L5
Format settings, BVOP : 2
Format settings, QPel : No
Format settings, GMC : No warppoints
Format settings, Matrix : Default (H.263)
Muxing mode : Packed bitstream
Codec ID : XVID
Codec ID/Hint : XviD
Duration : 51mn 38s
Bit rate : 1 797 Kbps
Width : 704 pixels
Height : 400 pixels
Display aspect ratio : 16:9
Frame rate : 25.000 fps
Color space : YUV
Chroma subsampling : 4:2:0
Bit depth : 8 bits
Scan type : Progressive
Compression mode : Lossy
Bits/(Pixel*Frame) : 0.255
Stream size : 664 MiB (90%)
Writing library : XviD 73

Audio
ID : 1
Format : AC-3
Format/Info : Audio Coding 3
Mode extension : CM (complete main)
Format settings, Endianness : Big
Codec ID : 2000
Duration : 51mn 38s
Bit rate mode : Constant
Bit rate : 192 Kbps
Channel(s) : 2 channels
Channel positions : Front: L R
Sampling rate : 48.0 KHz
Bit depth : 16 bits
Compression mode : Lossy
Stream size : 70.9 MiB (10%)
Alignment : Aligned on interleaves
Interleave, duration : 240 ms (6.00 video frames)
Interleave, preload duration : 224 ms
Скриншоты:



Время раздачи: 24/7

Смотреть Online

http://moonwalk.cc/serial/10886657a7de1fce9900176ba0e61cf2/iframe
Детали торрента:
Название:Viasat History: Как климат изменил ход истории / How Climate Made History (2015) SATRip (серии 1-2 из 2)
Дата добавления:01 Янв 2016 13:21:19
Размер:1,45 GB
Раздают:
Качают:0
Форум:History Channel

All rights reserved © 2015-2018