TORRENTS45.XYZ

Скачать Мать и дитя / Mother and Child (2009) BDRip [H.264/720p]


Мать и дитя / Mother and Child (2009) BDRip [H.264/720p]
Производство: США, Испания / Everest Entertainment, Cha Cha Cha, Mockingbird Pictures
Жанр: Драма, Мелодрама

Режиссер: Родриго Гарсия
Актеры: Александрия М. Саллинг, Коннор Крамм, Аннетт Бенинг, Айлин Райан, Сэмюэл Л. Джексон, Наоми Уоттс, Черри Джонс, Керри Вашингтон, Дэвид Рэмси, Кэй Д`Арси

Описание:
50-летняя Карен живет как будто по привычке. Много лет назад, будучи девочкой-подростком, она вынуждена была отдать свою только что родившуюся дочь в другую семью.
Ее выросшая дочь Элизабет, холодный и расчетливый адвокат, скользит по жизни по касательной — без эмоций и привязанностей. Ей нравится играть во властные мужские игры. Она боится любви. Она никогда не видела свою настоящую мать.
Молодой кондитер Люси несчастна — она отчаянно хочет стать матерью, но не может родить. Героини фильма живут, замкнутые в скорлупу своего одиночества, страхов и комплексов. Их жизни должны пересечься. Но как?



Релиз от: HDClub
Продолжительность: 02:06:31
Качество видео: BDRip
Перевод: Двуголосый закадровый, профессиональный
Язык субтитров: Русский, Английский
Вид субтитров: Вшитые, отключаемые

Видео: AVC/H.264, 1280x544, ~4300 kbps
Аудио 1: AC3, 6 ch, 640 kbps, Русский (СР-Дистрибуция)
Аудио 2: AC3, 6 ch, 640 kbps, Английский

Mediainfo:

Код:

Общее
Уникальный идентификатор                 : 247295778432047323597244136662995130048 (0xBA0B6F3A198EB7038CD51BE2318D56C0)
Полное имя                               : D:\TORRENT\FILMS\Mother.and.Child.2009.BDRip.720p.Rus.Eng.mkv
Формат                                   : Matroska
Версия формата                           : Version 2
Размер файла                             : 4,93 Гбайт
Продолжительность                        : 2 ч. 6 м.
Общий поток                              : 5581 Кбит/сек
Название фильма                          : Mother and Child (2009) - Release for HDCLUB
Дата кодирования                         : UTC 2015-12-28 13:15:56
Программа кодирования                    : mkvmerge v5.7.0 ('The Whirlwind') built on Jul  8 2012 20:08:51
Библиотека кодирования                   : libebml v1.2.3 + libmatroska v1.3.0

Видео
Идентификатор                            : 1
Формат                                   : AVC
Формат/Информация                        : Advanced Video Codec
Профиль формата                          : High@L4.1
Параметр CABAC формата                   : Да
Параметр ReFrames формата                : 11 кадров
Идентификатор кодека                     : V_MPEG4/ISO/AVC
Продолжительность                        : 2 ч. 6 м.
Битрейт                                  : 4300 Кбит/сек
Ширина                                   : 1280 пикселей
Высота                                   : 544 пикселя
Соотношение сторон                       : 2,35:1
Режим частоты кадров                     : Постоянный
Частота кадров                           : 23,976 кадра/сек
Цветовое пространство                    : YUV
Субдискретизация насыщенности            : 4:2:0
Битовая глубина                          : 8 бит
Тип развёртки                            : Прогрессивная
Бит/(Пиксели*Кадры)                      : 0.258
Размер потока                            : 3,70 Гбайт (75%)
Библиотека кодирования                   : x264 core 118 r2085 8a62835
Настройки программы                      : cabac=1 / ref=11 / deblock=1:-3:-3 / analyse=0x3:0x133 / me=umh / subme=11 / psy=1 / psy_rd=1.10:0.00 / mixed_ref=1 / me_range=64 / chroma_me=1 / trellis=2 / 8x8dct=1 / cqm=0 / deadzone=21,11 / fast_pskip=0 / chroma_qp_offset=-2 / threads=12 / sliced_threads=0 / nr=0 / decimate=0 / interlaced=0 / bluray_compat=0 / constrained_intra=0 / bframes=8 / b_pyramid=2 / b_adapt=2 / b_bias=0 / direct=3 / weightb=1 / open_gop=0 / weightp=2 / keyint=250 / keyint_min=23 / scenecut=40 / intra_refresh=0 / rc_lookahead=40 / rc=2pass / mbtree=0 / bitrate=4300 / ratetol=1.0 / qcomp=0.60 / qpmin=0 / qpmax=69 / qpstep=4 / cplxblur=20.0 / qblur=0.5 / vbv_maxrate=50000 / vbv_bufsize=62500 / nal_hrd=none / ip_ratio=1.40 / pb_ratio=1.30 / aq=1:0.80
Язык                                     : English
Default                                  : Да
Forced                                   : Нет
Основные цвета                           : BT.709
Характеристики трансфера                 : BT.709
Коэффициенты матрицы                     : BT.709
colour_range                             : Limited

Аудио #1
Идентификатор                            : 2
Формат                                   : AC-3
Формат/Информация                        : Audio Coding 3
Расширение режима                        : CM (complete main)
Параметр Endianness формата              : Big
Идентификатор кодека                     : A_AC3
Продолжительность                        : 2 ч. 6 м.
Вид битрейта                             : Постоянный
Битрейт                                  : 640 Кбит/сек
Каналы                                   : 6 каналов
Расположение каналов                     : Front: L C R, Side: L R, LFE
Частота                                  : 48,0 КГц
Битовая глубина                          : 16 бит
Метод сжатия                             : С потерями
Размер потока                            : 579 Мбайт (11%)
Язык                                     : Russian
Default                                  : Да
Forced                                   : Нет

Аудио #2
Идентификатор                            : 3
Формат                                   : AC-3
Формат/Информация                        : Audio Coding 3
Расширение режима                        : CM (complete main)
Параметр Endianness формата              : Big
Идентификатор кодека                     : A_AC3
Продолжительность                        : 2 ч. 6 м.
Вид битрейта                             : Постоянный
Битрейт                                  : 640 Кбит/сек
Каналы                                   : 6 каналов
Расположение каналов                     : Front: L C R, Side: L R, LFE
Частота                                  : 48,0 КГц
Битовая глубина                          : 16 бит
Метод сжатия                             : С потерями
Размер потока                            : 579 Мбайт (11%)
Язык                                     : English
Default                                  : Нет
Forced                                   : Нет

Текст #1
Идентификатор                            : 4
Формат                                   : UTF-8
Идентификатор кодека                     : S_TEXT/UTF8
Идентификатор кодека/Информация          : UTF-8 Plain Text
Язык                                     : Russian
Default                                  : Нет
Forced                                   : Нет

Текст #2
Идентификатор                            : 5
Формат                                   : UTF-8
Идентификатор кодека                     : S_TEXT/UTF8
Идентификатор кодека/Информация          : UTF-8 Plain Text
Язык                                     : English
Default                                  : Нет
Forced                                   : Нет

Меню
00:00:00.000                             : en:00:00:00.000
00:07:35.246                             : en:00:07:35.246
00:13:20.299                             : en:00:13:20.299
00:21:16.150                             : en:00:21:16.150
00:25:42.040                             : en:00:25:42.040
00:37:08.560                             : en:00:37:08.560
00:42:44.312                             : en:00:42:44.312
00:48:34.036                             : en:00:48:34.036
00:56:52.868                             : en:00:56:52.868
01:04:37.999                             : en:01:04:37.999
01:08:47.749                             : en:01:08:47.749
01:16:33.380                             : en:01:16:33.380
01:24:51.295                             : en:01:24:51.295
01:30:03.273                             : en:01:30:03.273
01:39:25.960                             : en:01:39:25.960
01:45:19.438                             : en:01:45:19.438
01:53:17.708                             : en:01:53:17.708
01:59:33.666                             : en:01:59:33.666
Скриншоты:


Смотреть Online

http://moonwalk.cc/video/9d526027ad475fe7/iframe
Детали торрента:
Название:Мать и дитя / Mother and Child (2009) BDRip [H.264/720p]
Дата добавления:28 Дек 2015 22:07:51
Размер:4,93 GB
Раздают:1
Качают:0
Форум:Зарубежные Фильмы (HD, UHD-LQ)

All rights reserved © 2015-2018