TORRENTS45.XYZ

Скачать Голливудская мадам / Heidi Fleiss: The Would-Be Madam of Crystal (2008) HDTV [H.264/1080i]


Голливудская мадам / Heidi Fleiss: The Would-Be Madam of Crystal (2008) HDTV [H.264/1080i]

Телекомпания: США, HBO Films, World of Wonder
Жанр: Документальный

Участники: Хайди Флайсс, Энтони Бруклиер, Ларри Кинг, Том Сайзмор, Michael Smallridge, Mary, Kim Rouggie, David Emmer, Энтони Л. Де Мео, George Flint

Описание:
Рассказ о новом увлечении бывшей дивы Голивуда Хайди Флайсс — расположенном в Неваде мужском публичном доме под названием «Конюшня Хайди», который обслуживает прекрасную половину человечества.



Продолжительность: 01:09:22
Качество видео: HDTV [1080i]

Перевод: Многоголосый закадровый, профессиональный (AMedia)
Аудио 1 Rus: MP2, 2 ch, 48,0 kHz, 192 kbps - MVO
Аудио 2 Eng: MP2, 2 ch, 48,0 kHz, 192 kbps - Оригинал
Аудио 3 Rus: АС3, 6 ch, 48,0 kHz, 384 kbps - MVO
Вид субтитров: Вшитые

Видео: AVC/H.264, 1920x1080, ~6722 kb/s
Аудио: MP2, 2 ch, 192 kb/s VBR, CBR
Семпл: Скачать

Mediainfo:

Код:

Общее
Идентификатор                            : 16 (0x10)
Полное имя                               : Heidi Fleiss The Would-be Madam of Crystal_HD.ts
Формат                                   : MPEG-TS
Размер файла                             : 3,82 Гбайт
Продолжительность                        : 1 ч. 9 м.
Режим общего битрейта                    : Переменный
Общий поток                              : 7888 Кбит/сек

Видео
Идентификатор                            : 1812 (0x714)
Идентификатор меню                       : 812 (0x32C)
Формат                                   : AVC
Формат/Информация                        : Advanced Video Codec
Профиль формата                          : High@L4.0
Параметр CABAC формата                   : Да
Параметр ReFrames формата                : 4 кадра
Идентификатор кодека                     : 27
Продолжительность                        : 1 ч. 9 м.
Битрейт                                  : 6722 Кбит/сек
Ширина                                   : 1920 пикселей
Высота                                   : 1080 пикселей
Соотношение сторон                       : 16:9
Частота кадров                           : 25,000 кадров/сек
Стандарт вещания                         : PAL
Цветовое пространство                    : YUV
Субдискретизация насыщенности            : 4:2:0
Битовая глубина                          : 8 бит
Тип развёртки                            : MBAFF
Бит/(Пиксели*Кадры)                      : 0.130
Размер потока                            : 3,26 Гбайт (85%)
Основные цвета                           : BT.709
Характеристики трансфера                 : BT.709
Коэффициенты матрицы                     : BT.709

Аудио #1
Идентификатор                            : 2812 (0xAFC)
Идентификатор меню                       : 812 (0x32C)
Формат                                   : MPEG Audio
Версия формата                           : Version 1
Профиль формата                          : Layer 2
Режим                                    : Joint stereo
Расширение режима                        : Intensity Stereo + MS Stereo
Идентификатор кодека                     : 4
Продолжительность                        : 1 ч. 9 м.
Вид битрейта                             : Постоянный
Битрейт                                  : 192 Кбит/сек
Каналы                                   : 2 канала
Частота                                  : 48,0 КГц
Метод сжатия                             : С потерями
Задержка видео                           : 280 мс.
Размер потока                            : 95,3 Мбайт (2%)
Язык                                     : std
Язык, дополнительно                      : Clean effects

Аудио #2
Идентификатор                            : 3812 (0xEE4)
Идентификатор меню                       : 812 (0x32C)
Формат                                   : MPEG Audio
Версия формата                           : Version 1
Профиль формата                          : Layer 2
Режим                                    : Joint stereo
Расширение режима                        : Intensity Stereo + MS Stereo
Идентификатор кодека                     : 4
Продолжительность                        : 1 ч. 9 м.
Вид битрейта                             : Постоянный
Битрейт                                  : 192 Кбит/сек
Каналы                                   : 2 канала
Частота                                  : 48,0 КГц
Метод сжатия                             : С потерями
Задержка видео                           : 280 мс.
Размер потока                            : 95,3 Мбайт (2%)
Язык                                     : std
Язык, дополнительно                      : Clean effects

Аудио #3
Идентификатор                            : 4812 (0x12CC)
Идентификатор меню                       : 812 (0x32C)
Формат                                   : AC-3
Формат/Информация                        : Audio Coding 3
Расширение режима                        : CM (complete main)
Параметр Endianness формата              : Big
Идентификатор кодека                     : 6
Продолжительность                        : 1 ч. 9 м.
Вид битрейта                             : Постоянный
Битрейт                                  : 384 Кбит/сек
Каналы                                   : 6 каналов
Расположение каналов                     : Front: L C R, Side: L R, LFE
Частота                                  : 48,0 КГц
Битовая глубина                          : 16 бит
Метод сжатия                             : С потерями
Задержка видео                           : 72 мс.
Размер потока                            : 191 Мбайт (5%)
Язык                                     : std
Язык, дополнительно                      : Clean effects

Текст
Идентификатор                            : 63 (0x3F)-100
Идентификатор меню                       : 812 (0x32C)
Формат                                   : Teletext

Меню
Идентификатор                            : 812 (0x32C)
Идентификатор меню                       : 812 (0x32C)
Продолжительность                        : 1 ч. 9 м.
Список                                   : 1812 (0x714) (AVC) / 2812 (0xAFC) (MPEG Audio, std) / 3812 (0xEE4) (MPEG Audio, std) / 4812 (0x12CC) (AC-3, std) / 63 (0x3F) ()
Язык                                     :  / std / std / std
Скриншоты:


Детали торрента:
Название:Голливудская мадам / Heidi Fleiss: The Would-Be Madam of Crystal (2008) HDTV [H.264/1080i]
Дата добавления:18 Дек 2015 15:36:21
Размер:3,82 GB
Раздают:
Качают:0
Форум:Тележурналистика

All rights reserved © 2015-2019