TORRENTS45.XYZ

Скачать Red Warlock - Serve Your Master (2010) [FLAC|image+.cue]<Heavy Metal>


Red Warlock - Serve Your Master (2010)
Год: 2010
Жанр: Heavy Metal
Label & Catalog#: My Graveyard Productions [MGP-067]
Продолжительность: 00:44:08

Кодек: FLAC [image+cue]
Битрейт: Lossless

Треклист:
01. Rising from Hell
02. Awakening
03. Sabrewolf
04. Eagle Take My Hand
05. The Mark of Betrayal
06. Red Warlock
07. Endless Line
08. Slave to the Master
09. Ashes and Blood

cue:

Код:
REM GENRE "Heavy Metal"
REM DATE 2010
REM DISCID 7E0CD10A
REM COMMENT "ExactAudioCopy v1.0b3"
PERFORMER "Red Warlock"
TITLE "Serve Your Master"
FILE "Red Warlock - Serve Your Master.flac" WAVE
  TRACK 01 AUDIO
    TITLE "Rising from Hell"
    PERFORMER "Red Warlock"
    INDEX 01 00:00:00
  TRACK 02 AUDIO
    TITLE "Awakening "
    PERFORMER "Red Warlock"
    INDEX 01 06:02:37
  TRACK 03 AUDIO
    TITLE "Sabrewolf"
    PERFORMER "Red Warlock"
    INDEX 01 13:18:18
  TRACK 04 AUDIO
    TITLE "Eagle Take My Hand"
    PERFORMER "Red Warlock"
    INDEX 01 19:20:55
  TRACK 05 AUDIO
    TITLE "The Mark of Betrayal "
    PERFORMER "Red Warlock"
    INDEX 01 23:27:59
  TRACK 06 AUDIO
    TITLE "Red Warlock"
    PERFORMER "Red Warlock"
    INDEX 01 29:15:04
  TRACK 07 AUDIO
    TITLE "Endless Line"
    PERFORMER "Red Warlock"
    INDEX 01 34:25:58
  TRACK 08 AUDIO
    TITLE "Slave to the Master"
    PERFORMER "Red Warlock"
    INDEX 01 35:41:70
  TRACK 09 AUDIO
    TITLE "Ashes and Blood"
    PERFORMER "Red Warlock"
    INDEX 01 39:53:09

Отчёт ЕАС:

Код:

Exact Audio Copy V1.0 beta 3 from 29. August 2011

EAC extraction logfile from 3. November 2015, 17:02

Red Warlock / Serve Your Master

Used drive  : PIONEER DVD-RW  DVR-221L   Adapter: 2  ID: 0

Read mode               : Secure
Utilize accurate stream : Yes
Defeat audio cache      : Yes
Make use of C2 pointers : No

Read offset correction                      : 6
Overread into Lead-In and Lead-Out          : No
Fill up missing offset samples with silence : Yes
Delete leading and trailing silent blocks   : No
Null samples used in CRC calculations       : Yes
Used interface                              : Native Win32 interface for Win NT & 2000

Used output format : Internal WAV Routines
Sample format      : 44.100 Hz; 16 Bit; Stereo

TOC of the extracted CD

     Track |   Start  |  Length  | Start sector | End sector
    ---------------------------------------------------------
        1  |  0:00.00 |  6:02.37 |         0    |    27186
        2  |  6:02.37 |  7:15.56 |     27187    |    59867
        3  | 13:18.18 |  6:02.37 |     59868    |    87054
        4  | 19:20.55 |  4:07.04 |     87055    |   105583
        5  | 23:27.59 |  5:47.20 |    105584    |   131628
        6  | 29:15.04 |  5:10.54 |    131629    |   154932
        7  | 34:25.58 |  1:16.12 |    154933    |   160644
        8  | 35:41.70 |  4:11.14 |    160645    |   179483
        9  | 39:53.09 |  4:18.07 |    179484    |   198840
       10  | 46:43.16 |  7:58.38 |    210241    |   246128

Range status and errors

Selected range

     Filename E:\Rip [MeTaLMaDNeSS.TeaM]\Red Warlock - Serve Your Master.wav

     Peak level 100.0 %
     Extraction speed 7.2 X
     Range quality 100.0 %
     Copy CRC EA70CB08
     Copy OK

No errors occurred

AccurateRip summary

Track  1  not present in database
Track  2  not present in database
Track  3  not present in database
Track  4  not present in database
Track  5  not present in database
Track  6  not present in database
Track  7  not present in database
Track  8  not present in database
Track  9  not present in database

None of the tracks are present in the AccurateRip database

End of status report

==== Log checksum 651AA936FE7E49F6BDF8A35BBCE03E7503B5315D83930569047B7CBE521215A4 ====

Отчёт AUDIOCHECKER:

Код:

AUDIOCHECKER v2.0 beta (build 457) - by Dester - opdester@freemail.hu
~~~~~~~~~~~~~~~~~~~~~~~~~~~~~~~~~~
-=== DO NOT EDIT THIS FILE! ===-

Path: ...\RED WARLOCK [2010] [CD] Serve Your Master [EAC-FLAC]

1 -=- Red Warlock - Serve Your Master.flac -=- CDDA (99%)

56558916

Спектрограмма:



Детали торрента:
Название:Red Warlock - Serve Your Master (2010) [FLAC|image+.cue]<Heavy Metal>
Дата добавления:18 Ноя 2015 21:55:14
Размер:335 MB
Раздают:
Качают:0
Форум:Metal (Lossless)

All rights reserved © 2015-2018