TORRENTS45.XYZ

Скачать Уральские пельмени. В поисках Асфальтиды (2015.11.15) DVB [H.264]


Уральские пельмени. В поисках Асфальтиды (2015.11.15) DVB [H.264]
Телекомпания: СТС
Жанр: Юмор

Описание:
Они- Короли бензоколонки, «Восставшие из ЛАДЫ» - «Маздахисты», «ЛЕНДлузеры» и «ПОРШивцы». Они не боятся пересекать «двойную смешную» и «Свистящих в терновнике». По утрам они пьют тосол, заглушая вчерашний выхлоп. Для них женщина за рулём – курица, а машина – ласточка. Они — «ШОУ Уральские пельмени»! Пристёгиваем ремни и включаем навигаторы – «Шоу Уральские Пельмени» приглашает Вас принять участие в увлекательном приключении «В поисках Асфальтиды» Тебя ждёт осмотр ТЕХ и ЭТИХ, круглосуточный ШиноШАНТАЖ и сага об «ОСАГО», Вам потребуется лишь взять с собой «подружку безопасности». Вас заведут с первой шутки! И никогда, никогда — Ниссан против ветра!

Участники: Дмитрий Брекоткин, Сергей Ершов, Сергей Исаев, Сергей Калугин, Вячеслав Мясников, Сергей Нетиевский, Александр Попов, Андрей Рожков, Дмитрий Соколов, Максим Ярица, Юля Михалкова

Продолжительность: 01:11:43
Качество видео: DVB

Видео: AVC, 720x576 (4:3), 25.000 fps, 3 179 Kbps (0.307 bit/pixel)
Аудио: MP2, 48.0 KHz, 2 ch, 256 Kbps, CBR (English)

Mediainfo:

Код:

Формат                                   : MPEG-TS
Размер файла                             : 1,81 Гбайт
Продолжительность                        : 1 ч. 11 м.
Режим общего битрейта                    : Переменный
Общий поток                              : 3616 Кбит/сек

Видео
Идентификатор                            : 75 (0x4B)
Идентификатор меню                       : 14 (0xE)
Формат                                   : AVC
Формат/Информация                        : Advanced Video Codec
Профиль формата                          : High@L3
Параметр CABAC формата                   : Да
Параметр ReFrames формата                : 3 кадра
Идентификатор кодека                     : 27
Продолжительность                        : 1 ч. 11 м.
Битрейт                                  : 3179 Кбит/сек
Ширина                                   : 720 пикселей
Высота                                   : 576 пикселей
Соотношение сторон                       : 4:3
Частота кадров                           : 25,000 кадров/сек
Стандарт вещания                         : Component
Цветовое пространство                    : YUV
Субдискретизация насыщенности            : 4:2:0
Битовая глубина                          : 8 бит
Тип развёртки                            : Чересстрочная
Порядок развёртки                        : Верхнее поле первое
Бит/(Пиксели*Кадры)                      : 0.307
Размер потока                            : 1,59 Гбайт (88%)
Цветовой диапазон                        : Limited
Основные цвета                           : BT.601 PAL
Характеристики трансфера                 : BT.470 System B, BT.470 System G
Коэффициенты матрицы                     : BT.601

Аудио
Идентификатор                            : 76 (0x4C)
Идентификатор меню                       : 14 (0xE)
Формат                                   : MPEG Audio
Версия формата                           : Version 1
Профиль формата                          : Layer 2
Идентификатор кодека                     : 3
Продолжительность                        : 1 ч. 11 м.
Вид битрейта                             : Постоянный
Битрейт                                  : 256 Кбит/сек
Каналы                                   : 2 канала
Частота                                  : 48,0 КГц
Метод сжатия                             : С потерями
Задержка видео                           : -80 мс.
Размер потока                            : 131 Мбайт (7%)
Язык                                     : English
 
Скриншоты:


Детали торрента:
Название:Уральские пельмени. В поисках Асфальтиды (2015.11.15) DVB [H.264]
Дата добавления:15 Ноя 2015 17:02:41
Размер:1,81 GB
Раздают:
Качают:0
Форум:ПостКВН

All rights reserved © 2015-2018