TORRENTS45.XYZ

Скачать Discovery: Мятежники ледяного озера / Ice Lake Rebels (2014) HDTVRip (сезон 1, серии 1-10 из 10)


Мятежники ледяного озера / Ice Lake Rebels (2014) HDTVRip (сезон 1, серии 1-10 из 10)
Производство: США, Relativity Television
Жанр: Документальный

Описание:
К далекому глухому озеру подступают зимние холода. Айману и Джессике предстоит узнать, что жизнь в диких условиях во время морозов грозит смертельной опасностью.



Продолжительность: 10 х ~ 00:44:00
Качество видео: HDTVRip
Перевод: Одноголосый закадровый, профессиональный

Видео: Xvid, 720x400 (1.80:1), ~ 1530 kbps
Аудио: AC3, 2 ch, 192 kbps

Mediainfo:

Код: выделить все

General
Complete name                  : D:\HDTVRip\02. Мятежники ледяного озера. Битва за еду.avi
Format                         : AVI
Format/Info                    : Audio Video Interleave
File size                      : 544 MiB
Duration                       : 43mn 54s
Overall bit rate               : 1 732 Kbps
Writing application            : VirtualDubMod 1.5.10.3 | www.virtualdub-fr.org || (build 2550/release)
Writing library                : VirtualDubMod build 2550/release

Video
ID                             : 0
Format                         : MPEG-4 Visual
Format profile                 : Advanced Simple@L5
Format settings, BVOP          : 1
Format settings, QPel          : No
Format settings, GMC           : No warppoints
Format settings, Matrix        : Default (H.263)
Codec ID                       : XVID
Codec ID/Hint                  : XviD
Duration                       : 43mn 54s
Bit rate                       : 1 530 Kbps
Width                          : 720 pixels
Height                         : 400 pixels
Display aspect ratio           : 16:9
Frame rate                     : 25.000 fps
Color space                    : YUV
Chroma subsampling             : 4:2:0
Bit depth                      : 8 bits
Scan type                      : Progressive
Compression mode               : Lossy
Bits/(Pixel*Frame)             : 0.213
Stream size                    : 480 MiB (88%)
Writing library                : XviD 1.2.1 (UTC 2008-12-04)

Audio
ID                             : 1
Format                         : AC-3
Format/Info                    : Audio Coding 3
Mode extension                 : CM (complete main)
Format settings, Endianness    : Big
Codec ID                       : 2000
Duration                       : 43mn 54s
Bit rate mode                  : Constant
Bit rate                       : 192 Kbps
Channel(s)                     : 2 channels
Channel positions              : Front: L R
Sampling rate                  : 48.0 KHz
Bit depth                      : 16 bits
Compression mode               : Lossy
Stream size                    : 60.3 MiB (11%)
Alignment                      : Split accross interleaves
Interleave, duration           : 40 ms (1.00 video frame)
Interleave, preload duration   : 500 ms

Содержание:

01. Мятежники ледяного озера. Зима близко
02. Мятежники ледяного озера. Битва за еду
03. Мятежники ледяного озера. Медведи и капканы
04. Мятежники ледяного озера. Пропавшие без вести
05. Мятежники ледяного озера. Коварный холод
06. Мятежники ледяного озера. Игры на льду
07. Мятежники ледяного озера. Жизнь или смерть
08. Мятежники ледяного озера. Треснувший лед
09. Мятежники ледяного озера. Свадьба на озере
10. Мятежники ледяного озера. Приход весны
Скриншоты:


Все одноименные релизы в Клубе

Смотреть Online


Детали торрента:
Название:Discovery: Мятежники ледяного озера / Ice Lake Rebels (2014) HDTVRip (сезон 1, серии 1-10 из 10)
Дата добавления:04 Ноя 2015 12:44:29
Размер:5,33 GB
Раздают:
Качают:0
Форум:Discovery

All rights reserved © 2015-2019