TORRENTS45.XYZ

Скачать Стюарт: Прошлая жизнь / Stuart: A Life Backwards (2007) HDTVRip


Стюарт: Прошлая жизнь / Stuart: A Life Backwards (2007) HDTVRip
Производство: Великобритания, BBC Television Centre, HBO Films
Жанр: Драма, Биография

Режиссер: Дэвид Эттвуд
Актеры: Том Харди, Бенедикт Камбербэтч, Никола Даффетт, Клер-Луис Кордуэлл, Эдна Доре

Описание:
На одном из собраний благотворительной организации “Помоги бездомным” молодой интеллигент Алекс Мастерс (Бен Камбербатч) знакомится со своим сверстником – бомжом Стюартом Шортером (Том Харди). Стоит сразу заметить, что Стюарт не простой бомж, он – перекрученный калека с мускульной дистрофией и искаженным голосом, а также бывший зек и наркоман. Хотя в целом – отличный парень.Со временем интеллигент избавляется от страха и отвращения перед новым знакомым, и у них вскоре начинаются вполне товарищеские отношения. Теперь интеллигенту становится даже любопытно, как же Стюарт докатился до подобной жизни. Он начинает опрашивать друзей и родственников бомжа и постепенно узнает страшную и трагичную историю жизни своего приятеля.



Продолжительность: 01:28:02
Качество видео: HDTVRip
Перевод: Многоголосый закадровый

Видео: Xvid, 688x384, ~2151 kbps
Аудио: AC3, 2 ch, 192 kbps, CBR

Mediainfo:

Код: выделить все

Общее
Полное имя                               : D:\Dowloands\Видео\Stuart.A.Life.Backwards.2007_HDTVRip_[scarabey.org].avi
Формат                                   : AVI
Формат/Информация                        : Audio Video Interleave
Размер файла                             : 1,45 Гбайт
Продолжительность                        : 1 ч. 28 м.
Общий поток                              : 2353 Кбит/сек
Программа кодирования                    : VirtualDubMod 1.5.10.3 | www.virtualdub-fr.org || (build 2550/release)
Библиотека кодирования                   : VirtualDubMod build 2550/release

Видео
Идентификатор                            : 0
Формат                                   : MPEG-4 Visual
Профиль формата                          : Advanced Simple@L5
Параметр BVOP формата                    : 1
Параметр QPel формата                    : Нет
Параметр GMC формата                     : Без точки перехода
Параметр матрицы формата                 : Выборочная
Идентификатор кодека                     : XVID
Идентификатор кодека/Подсказка           : XviD
Продолжительность                        : 1 ч. 28 м.
Битрейт                                  : 2151 Кбит/сек
Ширина                                   : 688 пикселей
Высота                                   : 384 пикселя
Соотношение сторон                       : 16:9
Частота кадров                           : 25,000 кадров/сек
Цветовое пространство                    : YUV
Субдискретизация насыщенности            : 4:2:0
Битовая глубина                          : 8 бит
Тип развёртки                            : Прогрессивная
Метод сжатия                             : С потерями
Бит/(Пиксели*Кадры)                      : 0.326
Размер потока                            : 1,32 Гбайт (91%)
Библиотека кодирования                   : XviD 73

Аудио
Идентификатор                            : 1
Формат                                   : AC-3
Формат/Информация                        : Audio Coding 3
Расширение режима                        : CM (complete main)
Параметр Endianness формата              : Big
Идентификатор кодека                     : 2000
Продолжительность                        : 1 ч. 28 м.
Вид битрейта                             : Постоянный
Битрейт                                  : 192 Кбит/сек
Каналы                                   : 2 канала
Расположение каналов                     : Front: L R
Частота                                  : 48,0 КГц
Метод сжатия                             : С потерями
Размер потока                            : 121 Мбайт (8%)
Выравнивание                             : Разделение по промежуткам
Продолжительность промежутка             : 40  мс. (1,00 видеокадр)
Время предзагрузки промежутка            : 500  мс.

Дополнительная информация:

Фильм снят по мотивам книги Александра Мастерса «Стюарт: прошлая жизнь» (Stuart: A Life Backwards, 2005), которая является биографией его друга, Стюарта Шортера.
Скриншоты:


Все релизы "Стюарт: Прошлая жизнь / Stuart: A Life Backwards" на Torrents45.xyz

Смотреть Online

Детали торрента:
Название:Стюарт: Прошлая жизнь / Stuart: A Life Backwards (2007) HDTVRip
Дата добавления:26 Окт 2015 22:24:12
Размер:1,45 GB
Раздают:5
Качают:0
Форум:Зарубежные Фильмы (HD*Rip/LQ, DVDRip, SATRip, VHSRip)

All rights reserved © 2015-2019