TORRENTS45.XYZ

Скачать Солдаты (2004-2013) DVDRip / SATRip (сезон 1-17 + Дембельский альбом, серии 1-633 из 633)


Солдаты (2004-2013) DVDRip / SATRip (сезон 1-17 + Дембельский альбом, серии 1-633 из 633)
Производство: Россия / РЕН ТВ, продюсерский центр «Леан-М», студия «АН-фильм»
Жанр: драма, комедия, военный

Режиссер: Сергей Арланов, Лиза Клейнот, Влад Николаев
Актёры: Алексей Маклаков, Игнат Акрачков, Мария Аронова, Вячеслав Гришечкин, Анатолий Кощеев, Иван Моховиков, Софья Ануфриева, Максим Мальцев, Александр Пальчиков, Алексей Ошурков, Амаду Мамадаков, Антон Эльдаров, Борис Щербаков, Александр Лымарев, Ольга Фадеева, Роман Мадянов, Павел Майков и др.

Описание:
Действие происходит в некой воинской части, в городе у этой части, в квартирах персонажей. Показан быт и отношения солдат, сержантов, прапорщиков, офицеров и их ближайшего окружения.
Всё начинается с того, как два товарища, потерявшие связь друг с другом на гражданке, неожиданно встречаются в военкомате. Городской мажор и деревенский паренек теперь будут вместе тянуть армейскую лямку. Выполнение гражданского долга, как обычно, сопровождается большим количеством неприятностей.



Продолжительность: ~00:45:00 серия
Качество видео: DVDRip / SATRip

Тех.данные и описание посезонно:

Сезон 01:

Год выпуска: 2004
Количество серий: 18
Продолжительность: ~00:47:00 серия
Качество видео: DVDRip

Видео: Xvid, 640x480, ~1446kbps
Аудио: AC3, 48000 Hz, 2 ch, 192kbps

Описание: Призывниками не рождаются, а становятся. Два товарища, потерявшие связь друг с другом на гражданке, неожиданно встречаются в военкомате. Городской мажор и деревенский паренек теперь будут вместе тянуть армейскую лямку. Выполнение гражданского долга, как обычно, сопровождается большим количеством неприятностей. Главная напасть - "настоящий полковник" в исполнении Бориса Щербакова. Это хрестоматийный командир. Такие военачальники не переходят через Альпы, зато гарантированно становятся героями анекдотов. С новобранцами случаются обычные истории, присущие военной жизни: от "дедов" до самоволок. Иногда в расположение российских войск врываются неуставные романтические отношения. Медсестра, майор и рядовой - такому любовному треугольнику позавидовал бы и Шекспир. О том, как простая повестка в армию изменяет жизнь к лучшему. И что в военкомате есть вход, и нет выхода. О том, что не так страшна армия, как прапорщик Шматко и почему в армии нет официантов. А также почему плох тот солдат, который не смотрел "Солдаты".

MediaInfo:

Format : AVI
Format/Info : Audio Video Interleave
File size : 552 MiB
Duration : 46mn 49s
Overall bit rate : 1 648 Kbps
Writing application : FairUse Wizard - http://fairusewizard.com
Writing library : The best and REALLY easy backup tool

Video
ID : 0
Format : MPEG-4 Visual
Format profile : Advanced Simple@L5
Format settings, BVOP : 1
Format settings, QPel : No
Format settings, GMC : No warppoints
Format settings, Matrix : Default (MPEG)
Muxing mode : Packed bitstream
Codec ID : XVID
Codec ID/Hint : XviD
Duration : 46mn 49s
Bit rate : 1 446 Kbps
Width : 640 pixels
Height : 480 pixels
Display aspect ratio : 4:3
Frame rate : 25.000 fps
Color space : YUV
Chroma subsampling : 4:2:0
Bit depth : 8 bits
Scan type : Progressive
Compression mode : Lossy
Bits/(Pixel*Frame) : 0.188
Stream size : 484 MiB (88%)
Writing library : XviD 1.2.0.dev47 (UTC 2006-11-01)

Audio
ID : 1
Format : AC-3
Format/Info : Audio Coding 3
Format profile : Dolby Digital
Mode extension : CM (complete main)
Format settings, Endianness : Big
Codec ID : 2000
Duration : 46mn 49s
Bit rate mode : Constant
Bit rate : 192 Kbps
Channel(s) : 2 channels
Channel positions : Front: L R
Sampling rate : 48.0 KHz
Compression mode : Lossy
Stream size : 64.3 MiB (12%)
Alignment : Split accross interleaves
Interleave, duration : 40 ms (1.00 video frame)
Interleave, preload duration : 500 ms

Скриншоты:

Сезон 02:

Год выпуска: 2004
Количество серий: 18
Продолжительность: ~00:47:00 серия
Качество видео: DVDRip

Видео: Xvid, 720x544, ~1800kbps
Аудио: AC3, 48000 Hz, 2 ch, 224kbps

Описание: Во второй части сериала главные герои, отслужив год, становятся «черпаками». Их армейская жизнь постепенно обрастает маленькими прелестями: свой человек Вакутагин кашеварит на кухне, свой человек Соколов заведует каптеркой. «Черпаки» уже могут переложить какую-то часть своего священного долга перед родиной на плечи «духов», хотя, конечно, послужить придется и им. Во второй части солдатам все чаще придется становиться героями. Рискуя под пулями жизнью, они спасают детей, отбивают нападение на военный склад, обезвреживают вооруженных зеков и не дают прозвучать эху Второй Мировой войны. В качестве разминки солдаты устраивают праведную драку в одном общежитии и демонстрируют распоясавшимся скинхедам свою лучшую тренировку по рукопашному бою.

В «Солдатах 2» много любовных хитросплетений. Подлый подполковник, медсестра и рядовой с новой энергией будут любить и ненавидеть друг друга. Изнурительные позиционные бои на личном фронте окончательно избавят подлого подполковника от всего человеческого, и он встанет на скользкий путь маньяка-любителя. Любовь придет и в солдатский чепок, где заслуженная буфетчица воспылает нежным чувством к молоденькому лейтенанту. Ну и, конечно, большие перемены в личной жизни ожидают прапорщика Шматко. Этот легендарный герой по-прежнему в центре всеобщего внимания. Его выходки все так же вдумчиво нелепы и смешны.

MediaInfo:

Format : AVI
Format/Info : Audio Video Interleave
File size : 700 MiB
Duration : 48mn 4s
Overall bit rate : 2 035 Kbps
Writing application : VirtualDubMod 1.5.10.3 | www.virtualdub-fr.org || (build 2550/release)
Writing library : VirtualDubMod build 2550/release

Video
ID : 0
Format : MPEG-4 Visual
Format profile : Advanced Simple@L5
Format settings, BVOP : 1
Format settings, QPel : No
Format settings, GMC : No warppoints
Format settings, Matrix : Default (H.263)
Codec ID : XVID
Codec ID/Hint : XviD
Duration : 48mn 4s
Bit rate : 1 801 Kbps
Width : 720 pixels
Height : 544 pixels
Display aspect ratio : 4:3
Frame rate : 25.000 fps
Color space : YUV
Chroma subsampling : 4:2:0
Bit depth : 8 bits
Scan type : Progressive
Compression mode : Lossy
Bits/(Pixel*Frame) : 0.184
Stream size : 619 MiB (89%)
Writing library : XviD 1.2.1 (UTC 2008-12-04)

Audio
ID : 1
Format : AC-3
Format/Info : Audio Coding 3
Mode extension : CM (complete main)
Format settings, Endianness : Big
Codec ID : 2000
Duration : 48mn 4s
Bit rate mode : Constant
Bit rate : 224 Kbps
Channel(s) : 2 channels
Channel positions : Front: L R
Sampling rate : 48.0 KHz
Compression mode : Lossy
Stream size : 77.0 MiB (11%)
Alignment : Split accross interleaves
Interleave, duration : 40 ms (1.00 video frame)
Interleave, preload duration : 500 ms

Скриншоты:

Сезон 03:

Год выпуска: 2005
Количество серий: 16
Продолжительность: ~00:47:00 серия
Качество видео: DVDRip

Видео: Xvid, 704x528, ~1729kbps
Аудио: MP3, 48000 Hz, 2 ch, 128kbps

Описание: Над знакомой воинской частью нависла угроза расформирования. У всех стресс: командиру части майору Зубову (всюду мерещатся штабные проверки, солдатам мерещатся сверхурочные работы.

В часть прибывает новая красавица-медсестра. Офицеры деморализованы. Солдаты на глазах теряют боеготовность. Чтобы вернуть мысли подчиненных к защите родины, командир части проводит антисексуальную революцию.

На вторую роту обрушивается несчастье в лице нового ротного, капитана Кудашова.Последний раз таких чутких офицеров плодил Третий рейх.
Старые герои служат лучше прежнего и влипают в новые приключения...

MediaInfo:

Format : AVI
Format/Info : Audio Video Interleave
File size : 635 MiB
Duration : 47mn 34s
Overall bit rate : 1 868 Kbps
Writing application : FairUse Wizard - http://fairusewizard.com
Writing library : The best and REALLY easy backup tool

Video
ID : 0
Format : MPEG-4 Visual
Format profile : Advanced Simple@L5
Format settings, BVOP : 1
Format settings, QPel : No
Format settings, GMC : No warppoints
Format settings, Matrix : Default (MPEG)
Muxing mode : Packed bitstream
Codec ID : XVID
Codec ID/Hint : XviD
Duration : 47mn 34s
Bit rate : 1 730 Kbps
Width : 704 pixels
Height : 528 pixels
Display aspect ratio : 4:3
Frame rate : 25.000 fps
Color space : YUV
Chroma subsampling : 4:2:0
Bit depth : 8 bits
Scan type : Progressive
Compression mode : Lossy
Bits/(Pixel*Frame) : 0.186
Stream size : 589 MiB (93%)
Writing library : XviD 1.2.1 (UTC 2008-12-04)

Audio
ID : 1
Format : MPEG Audio
Format version : Version 1
Format profile : Layer 3
Mode : Joint stereo
Mode extension : MS Stereo
Codec ID : 55
Codec ID/Hint : MP3
Duration : 47mn 34s
Bit rate mode : Constant
Bit rate : 128 Kbps
Channel(s) : 2 channels
Sampling rate : 48.0 KHz
Compression mode : Lossy
Stream size : 43.6 MiB (7%)
Alignment : Aligned on interleaves
Interleave, duration : 40 ms (1.00 video frame)
Interleave, preload duration : 504 ms
Writing library : LAME3.97
Encoding settings : -m j -V 4 -q 2 -lowpass 17 -b 128

Скриншоты:

Сезон 04:

Год выпуска: 2005
Количество серий: 19
Продолжительность: ~00:47:00 серия
Качество видео: DVDRip

Видео: Xvid, 640x480, ~1564kbps
Аудио: AC3, 48000 Hz, 2 ch, 192kbps

Описание:Практически все персонажи, знакомые зрителям по «третьим» «Солдатам», переходят в четвертый сезон. За исключением младшего сержанты Нелипы (Кирилл Плетнев). Вместо него из Штаба округа в мотострелковую часть присылают другого одаренного в художественном смысле сержанта. Юрий Самсонов достойно нес службу в тепленьком месте, пока не соблазнил дочь полковника из штаба. Любвеобильного Самсонова посылают подальше от греха и от Штаба округа.

Но и на новом месте службы сержант, наделенный от природы пылкой душой, находит новый объект для своих эротических устремлений — медсестру Ларису (Екатерина Юдина). Их сближению поневоле способствует капитан Кудашов (Павел Майков), у которого, впрочем, свои виды на Ларису. В этом любовном треугольнике преимущество то и дело переходит от Самсонова к Кудашову и наоборот. Вот только от сержанта и капитана в этой игре ничего не зависит… фигурки по своему усмотрению передвигает расчетливая медсестра.

MediaInfo:

Format : AVI
Format/Info : Audio Video Interleave
File size : 600 MiB
Duration : 47mn 31s
Overall bit rate : 1 766 Kbps
Movie name : "Солдаты 4", 1-я серия
Director : DVDRip by N!CK
Writing application : VirtualDubMod 1.5.10.2 (build 2540/release)

Video
ID : 0
Format : MPEG-4 Visual
Format profile : Advanced Simple@L5
Format settings, BVOP : 2
Format settings, QPel : No
Format settings, GMC : No warppoints
Format settings, Matrix : Default (H.263)
Muxing mode : Packed bitstream
Codec ID : XVID
Codec ID/Hint : XviD
Duration : 47mn 31s
Bit rate : 1 564 Kbps
Width : 640 pixels
Height : 480 pixels
Display aspect ratio : 4:3
Frame rate : 25.000 fps
Color space : YUV
Chroma subsampling : 4:2:0
Bit depth : 8 bits
Scan type : Progressive
Compression mode : Lossy
Bits/(Pixel*Frame) : 0.204
Stream size : 532 MiB (89%)
Writing library : XviD 1.2.1 (UTC 2008-12-04)

Audio
ID : 1
Format : AC-3
Format/Info : Audio Coding 3
Mode extension : CM (complete main)
Format settings, Endianness : Big
Codec ID : 2000
Duration : 47mn 31s
Bit rate mode : Constant
Bit rate : 192 Kbps
Channel(s) : 2 channels
Channel positions : Front: L R
Sampling rate : 48.0 KHz
Compression mode : Lossy
Stream size : 65.3 MiB (11%)
Alignment : Split accross interleaves
Interleave, duration : 40 ms (1.00 video frame)
Interleave, preload duration : 500 ms

Скриншоты:

Сезон 05:

Год выпуска: 2005
Количество серий: 19
Продолжительность: ~00:47:00 серия
Качество видео: DVDRip

Видео: Xvid, 640x480, ~1563kbps
Аудио: AC3, 48000 Hz, 2 ch, 192kbps

Описание: В новом сезоне "Солдат" создатели популярного сериала пытаются поставить точки там, где они должны стоять. Но при этом дают новое развитие вечной истории о службе в армии. В новых "Солдатах" в воинскую часть приезжают новые солдаты. В них угадываются черты тех, кто совсем недавно участвовал в покорении воинской науки и телевизионных рейтингов. Но - это совсем другие солдаты, с характерами и привычками, присущими следующему поколению новобранцев.
"Солдаты 5" - это еще и сезон расставаний. Вслед за "солдатами", оставившими расположение воинской части в четвертом сезоне, сериал покидает еще один персонаж. Но о нем многие из нас вместо добрых слов предпочли бы не говорить ничего. И вовсе не потому, что по сценарию ему уготована не лучшая доля…

MediaInfo:

Format : AVI
Format/Info : Audio Video Interleave
File size : 600 MiB
Duration : 47mn 31s
Overall bit rate : 1 766 Kbps
Movie name : "Солдаты 5", 1-я серия
Director : DVDRip by N!CK
Writing application : VirtualDubMod 1.5.10.2 (build 2540/release)

Video
ID : 0
Format : MPEG-4 Visual
Format profile : Advanced Simple@L5
Format settings, BVOP : 2
Format settings, QPel : No
Format settings, GMC : No warppoints
Format settings, Matrix : Default (H.263)
Muxing mode : Packed bitstream
Codec ID : XVID
Codec ID/Hint : XviD
Duration : 47mn 31s
Bit rate : 1 564 Kbps
Width : 640 pixels
Height : 480 pixels
Display aspect ratio : 4:3
Frame rate : 25.000 fps
Color space : YUV
Chroma subsampling : 4:2:0
Bit depth : 8 bits
Scan type : Progressive
Compression mode : Lossy
Bits/(Pixel*Frame) : 0.204
Stream size : 532 MiB (89%)
Writing library : XviD 1.2.1 (UTC 2008-12-04)

Audio
ID : 1
Format : AC-3
Format/Info : Audio Coding 3
Mode extension : CM (complete main)
Format settings, Endianness : Big
Codec ID : 2000
Duration : 47mn 31s
Bit rate mode : Constant
Bit rate : 192 Kbps
Channel(s) : 2 channels
Channel positions : Front: L R
Sampling rate : 48.0 KHz
Compression mode : Lossy
Stream size : 65.3 MiB (11%)
Alignment : Split accross interleaves
Interleave, duration : 40 ms (1.00 video frame)
Interleave, preload duration : 500 ms

Скриншоты:

Сезон 06:

Год выпуска: 2005
Количество серий: 16
Продолжительность: ~00:43:00 серия
Качество видео: SATRip

Видео: Xvid, 640x480, ~1588kbps
Аудио: MP2, 48000Hz, 2 ch, 160kbps

Описание: Со временем Пал Терентьич Бородин закончил Академию Генерального Штаба. В родную часть он возвращается в звании генерала-майора и при должности командира дивизии, а Виктор Романыч Колобков женился. Новой избранницей Виктора стала Виктория, девушка с живыми воспоминаниями о кочевом гарнизонном детстве и с развернутой сетью аптек. Из хорошего солдата Михаил Медведев превратился в заботливого мужа и успешного предпринимателя. Он занимается фармацевтическим бизнесом. За его успехами ревностно наблюдают Колобковы...

MediaInfo:

Format : AVI
Format/Info : Audio Video Interleave
File size : 551 MiB
Duration : 43mn 49s
Overall bit rate : 1 758 Kbps
Writing library : VirtualDub-MPEG2 build 24600/release

Video
ID : 0
Format : MPEG-4 Visual
Format profile : Advanced Simple@L5
Format settings, BVOP : 2
Format settings, QPel : No
Format settings, GMC : No warppoints
Format settings, Matrix : Default (H.263)
Muxing mode : Packed bitstream
Codec ID : XVID
Codec ID/Hint : XviD
Duration : 43mn 49s
Bit rate : 1 588 Kbps
Width : 640 pixels
Height : 480 pixels
Display aspect ratio : 4:3
Frame rate : 25.000 fps
Color space : YUV
Chroma subsampling : 4:2:0
Bit depth : 8 bits
Scan type : Progressive
Compression mode : Lossy
Bits/(Pixel*Frame) : 0.207
Stream size : 498 MiB (90%)
Writing library : XviD 1.2.1 (UTC 2008-12-04)

Audio
ID : 1
Format : MPEG Audio
Format version : Version 1
Format profile : Layer 2
Codec ID : 50
Duration : 43mn 49s
Bit rate mode : Constant
Bit rate : 160 Kbps
Channel(s) : 2 channels
Sampling rate : 48.0 KHz
Compression mode : Lossy
Stream size : 50.1 MiB (9%)
Alignment : Aligned on interleaves
Interleave, duration : 40 ms (1.00 video frame)
Interleave, preload duration : 504 ms

Скриншоты:

Сезон 07:

Год выпуска: 2006
Количество серий: 16
Продолжительность: ~00:43:00 серия
Качество видео: SATRip

Видео: Xvid, 640x480, ~1681kbps
Аудио: MP2, 48000 Hz, 2 ch, 160kbps

Описание:В седьмом сезоне популярного сериала "Солдаты" продолжаются линии, начатые в шестой части проекта. Конфронтация Медведевых и Колобковых приобретает особенную остроту. В аптеках Михаила Медведева (Александр Лымарев) начинаются ожесточенные инспекторские проверки. Предприниматель понимает, что инспекции имеют заказной характер, проверяющих засылают конкуренты. Но кто именно? Медведевы долго бьются над сложным ребусом, пока однажды Михаил не узнает имя своего главного соперника.
Вездесущий Шматко (Алексей Маклаков) всерьез озабочен ремонтом своей новой квартиры, поэтому его можно найти практически везде. Но только не в части. Очень часто "за Шматко" на горяче-смазочном хозяйстве остается его помощник сержант Скрипка (Илья Белокобыльский), лишенный полномочий своего шефа. Заправка автомобилей в части приобретает стихийный характер. Это всерьез злит командира части Зубова (Алексей Ошурков). Он грозится санкциями. Но Шматко умудряется отделаться легким испугом и в этот раз.
Смальков (Игнат Акрачков) получает капитана и уходит в краткосрочный "декретный" отпуск. В его отсутствие во второй роте начинается капитанская карусель. Истории с рождением смальковского наследника авторы придали легкий комедийный оттенок.

MediaInfo:

Format : AVI
Format/Info : Audio Video Interleave
File size : 551 MiB
Duration : 41mn 37s
Overall bit rate : 1 851 Kbps
Writing library : VirtualDub-MPEG2 build 24600/release

Video
ID : 0
Format : MPEG-4 Visual
Format profile : Advanced Simple@L5
Format settings, BVOP : 2
Format settings, QPel : No
Format settings, GMC : No warppoints
Format settings, Matrix : Default (H.263)
Muxing mode : Packed bitstream
Codec ID : XVID
Codec ID/Hint : XviD
Duration : 41mn 37s
Bit rate : 1 681 Kbps
Width : 640 pixels
Height : 480 pixels
Display aspect ratio : 4:3
Frame rate : 25.000 fps
Color space : YUV
Chroma subsampling : 4:2:0
Bit depth : 8 bits
Scan type : Progressive
Compression mode : Lossy
Bits/(Pixel*Frame) : 0.219
Stream size : 500 MiB (91%)
Writing library : XviD 1.2.1 (UTC 2008-12-04)

Audio
ID : 1
Format : MPEG Audio
Format version : Version 1
Format profile : Layer 2
Codec ID : 50
Duration : 41mn 37s
Bit rate mode : Constant
Bit rate : 160 Kbps
Channel(s) : 2 channels
Sampling rate : 48.0 KHz
Compression mode : Lossy
Stream size : 47.6 MiB (9%)
Alignment : Aligned on interleaves
Interleave, duration : 40 ms (1.00 video frame)
Interleave, preload duration : 504 ms

Скриншоты:

Сезон 08:

Год выпуска: 2006
Количество серий: 16
Продолжительность: ~00:43:00 серия
Качество видео: SATRip

Видео: Xvid, 640x480, ~1666kbps
Аудио: MP2, 48000 Hz, 2 ch, 160kbps

Описание: Главными героями поистине драматических событий остаются представители двух семей - Колобковы и Медведевы. Коварство и бескомпромиссность Колобковых переходят в решающую фазу. Виктор и Виктория решают поставить "крест" на бизнесе Медведева, ну или как минимум стать его владельцами. В этом деле ключевую роль играет злой гений подполковника Колобкова. Но - даже на хитрющего Колобка, как оказывается, всегда найдется решительный и не менее хитрый Медведь. Противостояние давних неприятелей достигает наивысшего напряжения…
Тем временем жизнь обитателей воинской части катит в заданном сценаристами направлении. В Цлаве просыпаются задремавшие было странности, а его увеличенная копия Папазогло объявляет, что собирается стать прапорщиком, чем производит фурор в части и приводит в легкое замешательство командование. Прапорщик Данилыч перенимает боксерский опыт у капитана Смалькова, а прапор Шматко вместе с семьей обживается на новом месте и принимает стратегически важное решение - сдавать тещину квартиру. Его жильцом становится еще один прапорщик. Авторы проекта делают заметный реверанс в сторону обладателей самого почетного воинского звания.

MediaInfo:

Format : AVI
Format/Info : Audio Video Interleave
File size : 551 MiB
Duration : 41mn 58s
Overall bit rate : 1 836 Kbps
Writing library : VirtualDub-MPEG2 build 24600/release

Video
ID : 0
Format : MPEG-4 Visual
Format profile : Advanced Simple@L5
Format settings, BVOP : 2
Format settings, QPel : No
Format settings, GMC : No warppoints
Format settings, Matrix : Default (H.263)
Muxing mode : Packed bitstream
Codec ID : XVID
Codec ID/Hint : XviD
Duration : 41mn 58s
Bit rate : 1 666 Kbps
Width : 640 pixels
Height : 480 pixels
Display aspect ratio : 4:3
Frame rate : 25.000 fps
Color space : YUV
Chroma subsampling : 4:2:0
Bit depth : 8 bits
Scan type : Progressive
Compression mode : Lossy
Bits/(Pixel*Frame) : 0.217
Stream size : 500 MiB (91%)
Writing library : XviD 1.2.1 (UTC 2008-12-04)

Audio
ID : 1
Format : MPEG Audio
Format version : Version 1
Format profile : Layer 2
Codec ID : 50
Duration : 41mn 58s
Bit rate mode : Constant
Bit rate : 160 Kbps
Channel(s) : 2 channels
Sampling rate : 48.0 KHz
Compression mode : Lossy
Stream size : 48.0 MiB (9%)
Alignment : Aligned on interleaves
Interleave, duration : 40 ms (1.00 video frame)
Interleave, preload duration : 504 ms

Скриншоты:

Сезон 09:

Год выпуска: 2006
Количество серий: 20
Продолжительность: ~00:43:00 серия
Качество видео: SATRip

Видео: Xvid, 576x432, ~1319kbps
Аудио: MP2, 48000 Hz, 2 ch, 160kbps

Описание:Главная интрига продолжения популярного сериала - коварный Колобков избегает перевода на Сахалин, он остается в родных пенатах, чтобы свести счеты со своим извечным неприятелем - Медведевым.
Герои сериала "Солдаты 9" действуют сразу на трех фронтах.
На первом - личном фронте - усердствуют капитан Дубин, рядовой Носов и чепочница Зотова. Все они пытаются добиться взаимности от людей, которые занимают особенное место в их сердцах. Герои идут в атаку и оголяют тылы. Тогда мы узнаем, что капитан Дубин способен не только оправдывать свою фамилию, но и говорить высоким штилем о самом прекрасном из чувств, рядовой Носов в состоянии поразить симпатичную библиотекаршу роскошнейшим букетом и убедительным знанием мировой классики, а чепочница Зотова готова научиться играть на бильярде, в надежде составить партию молодому бизнесмену.
На втором фронте - без перемен: солдаты и офицеры несут свою службу. С честью, с юморком или кто как может. По плохой армейской традиции в их жизненные распорядки вдруг откуда-то сверху сваливаются очередные учения. В них "красным" (нашим) предстоит одержать верх над "синими" (не нашими). Но не одними учениями загружены будни девятых "Солдат", у них - новые радости и испытания.
На третьем фронте пленных не берут, а боевые действия все чаще принимают размах широкомасштабной операции. У соперников - наполеоновские планы и давнишние счеты друг к другу. Кандидат в депутаты Виктор Романович Колобков идет в большую политику, а обитателям воинской части приходится следовать за ним.
Хорошая новость: в часть приходят новобранцы. Вот как выглядит словесный портрет каждого из них: Грачёв Андрей: крепкий парень, боксёр, одарен обострённым чувством справедливости. По повадкам - явно будущий сержант.

MediaInfo:

Format : AVI
Format/Info : Audio Video Interleave
File size : 446 MiB
Duration : 41mn 50s
Overall bit rate : 1 489 Kbps
Writing library : VirtualDub-MPEG2 build 24600/release

Video
ID : 0
Format : MPEG-4 Visual
Format profile : Advanced Simple@L5
Format settings, BVOP : 2
Format settings, QPel : No
Format settings, GMC : No warppoints
Format settings, Matrix : Default (H.263)
Muxing mode : Packed bitstream
Codec ID : XVID
Codec ID/Hint : XviD
Duration : 41mn 50s
Bit rate : 1 319 Kbps
Width : 576 pixels
Height : 432 pixels
Display aspect ratio : 4:3
Frame rate : 25.000 fps
Color space : YUV
Chroma subsampling : 4:2:0
Bit depth : 8 bits
Scan type : Progressive
Compression mode : Lossy
Bits/(Pixel*Frame) : 0.212
Stream size : 395 MiB (89%)
Writing library : XviD 1.2.1 (UTC 2008-12-04)

Audio
ID : 1
Format : MPEG Audio
Format version : Version 1
Format profile : Layer 2
Codec ID : 50
Duration : 41mn 50s
Bit rate mode : Constant
Bit rate : 160 Kbps
Channel(s) : 2 channels
Sampling rate : 48.0 KHz
Compression mode : Lossy
Stream size : 47.9 MiB (11%)
Alignment : Aligned on interleaves
Interleave, duration : 40 ms (1.00 video frame)
Interleave, preload duration : 504 ms

Скриншоты:

Сезон 10:

Год выпуска: 2006
Количество серий: 20
Продолжительность: ~00:43:00 серия
Качество видео: SATRip

Видео: Xvid, 576x432, ~1347kbps
Аудио: MP2, 48000 Hz, 2 ch, 160kbps

Описание: Воинская часть живет предстоящими выборами. Кандидат в депутаты Колобков стремится к победе. Он, кажется, рассматривает очередную схватку со своим главным конкурентом Медведевым как последнюю возможность поквитаться за прошлые неудачи. Предвыборный штаб Колобкова действует цинично и бескомпромисно, в ход идут даже противозаконные методы. Медведев не пасует, его политтехнолог готов предложить контраргументы. Но даже тогда, когда один из соперников потирает руки в предвкушении успеха, становится понятно, что победителя в решающем сражении сможет определить только «фотофиниш»...

MediaInfo:

Format : AVI
Format/Info : Audio Video Interleave
File size : 447 MiB
Duration : 41mn 9s
Overall bit rate : 1 517 Kbps
Writing library : VirtualDub-MPEG2 build 24600/release

Video
ID : 0
Format : MPEG-4 Visual
Format profile : Advanced Simple@L5
Format settings, BVOP : 2
Format settings, QPel : No
Format settings, GMC : No warppoints
Format settings, Matrix : Default (H.263)
Muxing mode : Packed bitstream
Codec ID : XVID
Codec ID/Hint : XviD
Duration : 41mn 9s
Bit rate : 1 347 Kbps
Width : 576 pixels
Height : 432 pixels
Display aspect ratio : 4:3
Frame rate : 25.000 fps
Color space : YUV
Chroma subsampling : 4:2:0
Bit depth : 8 bits
Scan type : Progressive
Compression mode : Lossy
Bits/(Pixel*Frame) : 0.217
Stream size : 397 MiB (89%)
Writing library : XviD 1.2.1 (UTC 2008-12-04)

Audio
ID : 1
Format : MPEG Audio
Format version : Version 1
Format profile : Layer 2
Codec ID : 50
Duration : 41mn 9s
Bit rate mode : Constant
Bit rate : 160 Kbps
Channel(s) : 2 channels
Sampling rate : 48.0 KHz
Compression mode : Lossy
Stream size : 47.1 MiB (11%)
Alignment : Aligned on interleaves
Interleave, duration : 40 ms (1.00 video frame)
Interleave, preload duration : 504 ms

Скриншоты:

Сезон 11:

Год выпуска: 2007
Количество серий: 12
Продолжительность: ~00:43:00 серия
Качество видео: SATRip

Видео: DivX 5, 704x528, ~1100kbps
Аудио: MP3, 48000 Hz, 2 ch, 128kbps

Описание: Коварный Виктор Романыч Колобков покинул вооруженные силы и расположение воинской части, но авторы сценария одиннадцатого сезона «Солдат», очевидно, решили, что герои сериала не должны особенно расслабляться.
По души обитателей воинской части они ввели в сюжет майора особого отдела Шкалина (Анатолий Кот), в котором на первый взгляд сложно рассмотреть отъявленного негодяя. Шкалин познается в сравнении. С течением сюжета особист приобретает от солдатских острословов негласное прозвище Шакалин. Он собирает своими методами толстую папку ценной информации о каждом из солдат и офицеров. Майор точно знает, как именно надо ее использовать.
Шкалин хорошо умеет организовывать сослуживцам неприятности, а вот для событий, происходящих в семье старшего прапорщика Шматко (Алексей Маклаков), подходит более драматическое определение – беда. Его жена Маша (Ольга Юрасова) то и дело исчезает без объяснения причин и мучается от жуткой депрессии. Шматко пытается разгадать этот ребус. На всякий случай он становится еще заботливее и по инерции теряет аппетит и деловую хватку. Сослуживцы не могут понять, что происходит с геройским прапорщиком, пока однажды Шматко не заявляет, что ему нужен отпуск. Он должен отправиться на поиски жены, которая пропала окончательно, оставив на прощание очень странную записку...

MediaInfo:

Format : AVI
Format/Info : Audio Video Interleave
File size : 387 MiB
Duration : 43mn 30s
Overall bit rate : 1 243 Kbps
Writing library : VirtualDub-MPEG2 build 24600/release

Video
ID : 0
Format : MPEG-4 Visual
Format settings, BVOP : 1
Format settings, QPel : No
Format settings, GMC : No warppoints
Format settings, Matrix : Default (H.263)
Muxing mode : Packed bitstream
Codec ID : DX50
Codec ID/Hint : DivX 5
Duration : 43mn 30s
Bit rate : 1 106 Kbps
Width : 704 pixels
Height : 528 pixels
Display aspect ratio : 4:3
Frame rate : 25.000 fps
Color space : YUV
Chroma subsampling : 4:2:0
Bit depth : 8 bits
Scan type : Progressive
Compression mode : Lossy
Bits/(Pixel*Frame) : 0.119
Stream size : 344 MiB (89%)
Writing library : DivX 5.2.1 Alpha (UTC 2004-09-08)

Audio
ID : 1
Format : MPEG Audio
Format version : Version 1
Format profile : Layer 3
Codec ID : 55
Codec ID/Hint : MP3
Duration : 43mn 30s
Bit rate mode : Constant
Bit rate : 128 Kbps
Channel(s) : 2 channels
Sampling rate : 48.0 KHz
Compression mode : Lossy
Stream size : 39.8 MiB (10%)
Alignment : Split accross interleaves
Interleave, duration : 40 ms (1.00 video frame)
Interleave, preload duration : 500 ms

Скриншоты:

Сезон 12:

Год выпуска: 2007
Количество серий: 50
Продолжительность: ~00:43:00 серия
Качество видео: SATRip

Видео: Xvid, 640x480, ~1217kbps
Аудио: MP3, 48000 Hz, 2 ch, 122kbps

Описание: Весна – время любви и начала новой жизни. И в «Новых «Солдатах» личная жизнь героев сериала претерпевает большие изменения. Прапорщик Шматко (Алексей Маклаков), уезжавший в Одессу на поиски своей внезапно пропавшей жены Маши, вернулся в родную часть с новой семьёй — Анной (Анна Большова) и её двумя детьми — Петей (Паша Серёгин) и Сашей (Катя Аманова). Даже у Анжелы Олеговны (Татьяна Кузнецова) появился поклонник - в неё влюбился дядя Шматко — Евгений Петрович (Владимир Толоконников). Такая огромная семья неизбежно столкнулась со множеством проблем — квартирных, финансовых, психологических. Но, как оказалось, все проблемы можно решить, если в семье царят дружба, любовь и взаимопонимание.

MediaInfo:

Format : AVI
Format/Info : Audio Video Interleave
File size : 421 MiB
Duration : 43mn 30s
Overall bit rate mode : Variable
Overall bit rate : 1 353 Kbps
Writing application : VirtualDubMod 1.5.10.2 (build 2540/release)
Writing library : VirtualDubMod build 2540/release

Video
ID : 0
Format : MPEG-4 Visual
Format profile : Advanced Simple@L5
Format settings, BVOP : 3
Format settings, QPel : Yes
Format settings, GMC : 3 warppoints
Format settings, Matrix : Default (H.263)
Codec ID : XVID
Codec ID/Hint : XviD
Duration : 43mn 30s
Bit rate : 1 218 Kbps
Width : 640 pixels
Height : 480 pixels
Display aspect ratio : 4:3
Frame rate : 25.000 fps
Color space : YUV
Chroma subsampling : 4:2:0
Bit depth : 8 bits
Scan type : Progressive
Compression mode : Lossy
Bits/(Pixel*Frame) : 0.159
Stream size : 379 MiB (90%)
Writing library : XviD 1.2.1 (UTC 2008-12-04)

Audio
ID : 1
Format : MPEG Audio
Format version : Version 1
Format profile : Layer 3
Codec ID : 55
Codec ID/Hint : MP3
Duration : 43mn 30s
Bit rate mode : Variable
Bit rate : 128 Kbps
Channel(s) : 2 channels
Sampling rate : 48.0 KHz
Compression mode : Lossy
Stream size : 38.0 MiB (9%)
Alignment : Aligned on interleaves
Interleave, duration : 24 ms (0.60 video frame)
Interleave, preload duration : 541 ms
Writing library : LAME3.98r
Encoding settings : -m s -V 4 -q 2 -lowpass 17 --abr 128

Скриншоты:

Сезон 13:

Год выпуска: 2007
Количество серий: 66
Продолжительность: ~00:43:00 серия
Качество видео: SATRip

Видео: Xvid, 512x384, ~1197kbps
Аудио: MP3, 48000 Hz, 1 ch, 96kbps

Описание: В новом сезоне командир части подполковник Зубов будет по-прежнему успешно руководить вверенной ему частью. Он и не подозревает, что впереди - череда удивительных кадровых перестановок.
Майор Шкалин встретит свою настоящую любовь, которая во многом изменит его жизнь и характер. Ставший холостяком подполковник Староконь вновь пустится в амурные приключения. К сожалению, в его служебных делах всё будет далеко не безоблачно. Он попадёт в сети нового «злодея» и лишится должности, а может, и не лишится это как посмотреть…
А вот у капитана Приходько начнется воистину веселая жизнь. Он, в отличие от подполковника, получит новую должность, переживёт бурный роман с чепочницей Зотовой и даже, в конце концов, совершит подвиг.
Старший лейтенант Куренков станет курсантом-миротворцем и пройдёт тяжёлый путь подготовки под руководством майора Мафонина. А среди курсантов- миротворцев мы увидим кое-кого из наших старых знакомых бывших солдат. Приняв участие в выполнении нескольких миротворческих миссий, Куренков вернётся в родную часть, в родную вторую роту.
Прапорщику Соколову предстоит раскрыть некие семейные тайны. А их с Варей любовь подвергнется большим испытаниям на прочность и верность.
Прапорщик Топалова получит орден за свои прежние боевые заслуги, станет старшим прапорщиком и даже попробует наладить свою личную жизнь, а вот насколько это у нее получится большой вопрос.
Старший прапорщик Данилюк переживёт не один «залёт» и его дальнейшая служба в армии будет находиться под угрозой…
Прапорщик Ковальский затоскует по морю и укатит на Дальний Восток вместе со своей женой Тамарой Славской. А в части появятся новые герои медсестра Даша Кобякова, молодые лейтенанты Макеев и Кулешов, а также мы познакомимся майором Кайгородовым, до сих пор пребывавшим в тени нашего повествования.
Мы попрощаемся с полюбившимся всем дедами Котом, Максименко, Цлавом, Кичибековым и Скрипкой. После дембеля Кот таки женится на своей Любе, а прапорщик Соколов устроит им свадебный сюрприз.
А в часть придёт новое молодое пополнение, которому ещё предстоит изучить нелёгкую воинскую науку. У каждого из них своя судьба, свой характер. Каждый по-своему будет привыкать к нелегким солдатским будням, и, конечно, все они будут попадать в курьёзные ситуации, набивать шишки и учиться быть Солдатами.

MediaInfo:

Format : AVI
Format/Info : Audio Video Interleave
File size : 400 MiB
Duration : 43mn 0s
Overall bit rate : 1 301 Kbps
Writing application : VirtualDubMod 1.5.4.1 (build 2178/release)
Writing library : VirtualDubMod build 2178/release

Video
ID : 0
Format : MPEG-4 Visual
Format profile : Simple@L3
Format settings, BVOP : 1
Format settings, QPel : No
Format settings, GMC : No warppoints
Format settings, Matrix : Custom
Codec ID : XVID
Codec ID/Hint : XviD
Duration : 43mn 0s
Bit rate : 1 198 Kbps
Width : 512 pixels
Height : 384 pixels
Display aspect ratio : 4:3
Frame rate : 25.000 fps
Color space : YUV
Chroma subsampling : 4:2:0
Bit depth : 8 bits
Scan type : Progressive
Compression mode : Lossy
Bits/(Pixel*Frame) : 0.244
Stream size : 369 MiB (92%)
Writing library : XviD 1.0.3 (UTC 2004-12-20)

Audio
ID : 1
Format : MPEG Audio
Format version : Version 1
Format profile : Layer 3
Codec ID : 55
Codec ID/Hint : MP3
Duration : 43mn 0s
Bit rate mode : Constant
Bit rate : 96.0 Kbps
Channel(s) : 1 channel
Sampling rate : 48.0 KHz
Compression mode : Lossy
Stream size : 29.5 MiB (7%)
Alignment : Aligned on interleaves
Interleave, duration : 80 ms (2.00 video frames)
Interleave, preload duration : 504 ms
Writing library : LAME3.97
Encoding settings : -m m -V 4 -q 2 -lowpass 20.5 -b 96

Скриншоты:

Сезон 14:

Год выпуска: 2008
Количество серий: 64
Продолжительность: ~00:43:00 серия
Качество видео: SATRip / DVDRip

Видео: Xvid, 560x416, ~1193kbps
Аудио: MP3, 48000 Hz, 1 ch, 96kbps

Описание: В новом сезоне нас ждут долгожданные встречи с полюбившимися героями и удивительные истории из жизни части. На экранах появятся новые персонажи: раскроется образ Ольги, появлявшейся в эпизодических ролях в тринадцатом сезоне, к службе приступит новый сержант Кобрин, и новый библиотекарь. К сожалению, по сценарию после окончания четырнадцатого сезона проект покинут сержант Суслопаров и майор Кайгородов.
Навадский, Паршин и Погосян продолжат осваивать нелёгкую воинскую науку. «Деды» — по традиции — будут стараться всячески облегчить свои солдатские будни. А ещё — во второй роте появится новый сержант, отличник боевой и политической подготовки. И появление этого сержанта заставит «дедов» определиться в своём отношении к «дедовщине», как неизбежному атрибуту армейской жизни.
Бывший командир части, а ныне — начальник штаба дивизии — подполковник Зубов, не оставит без внимания свою родную часть. Его дружба с подполковником Староконём не прервётся, а станет ещё крепче. Подполковник Староконь окажется в сложной ситуации — ему предстоит пережить романтическое увлечение, которое доставит ему немало нелёгких минут.
В жизни И. О. командира части, подполковника Шкалина произойдёт ещё один кадровый поворот. Его семейная жизнь с Еленой и Машенькой ничем не омрачена, кроме финансовых проблем.

MediaInfo:

Format : AVI
Format/Info : Audio Video Interleave
File size : 400 MiB
Duration : 43mn 8s
Overall bit rate : 1 297 Kbps
Writing application : VirtualDubMod 1.5.4.1 (build 2178/release)
Writing library : VirtualDubMod build 2178/release

Video
ID : 0
Format : MPEG-4 Visual
Format profile : Advanced Simple@L5
Format settings, BVOP : 1
Format settings, QPel : No
Format settings, GMC : No warppoints
Format settings, Matrix : Custom
Codec ID : XVID
Codec ID/Hint : XviD
Duration : 43mn 8s
Bit rate : 1 193 Kbps
Width : 560 pixels
Height : 416 pixels
Display aspect ratio : 4:3
Frame rate : 25.000 fps
Color space : YUV
Chroma subsampling : 4:2:0
Bit depth : 8 bits
Scan type : Progressive
Compression mode : Lossy
Bits/(Pixel*Frame) : 0.205
Stream size : 368 MiB (92%)
Writing library : XviD 1.2.0.dev47 (UTC 2006-11-01)

Audio
ID : 1
Format : MPEG Audio
Format version : Version 1
Format profile : Layer 3
Codec ID : 55
Codec ID/Hint : MP3
Duration : 43mn 8s
Bit rate mode : Constant
Bit rate : 96.0 Kbps
Channel(s) : 1 channel
Sampling rate : 48.0 KHz
Compression mode : Lossy
Stream size : 29.6 MiB (7%)
Alignment : Aligned on interleaves
Interleave, duration : 80 ms (2.00 video frames)
Interleave, preload duration : 504 ms
Writing library : LAME3.97
Encoding settings : -m m -V 4 -q 2 -lowpass 20.5 -b 96

Скриншоты:

Сезон 15:

Год выпуска: 2008
Количество серий: 83
Продолжительность: ~00:47:00 серия
Качество видео: SATRip

Видео: Xvid, 560x416, ~1110kbp
Аудио: MP3, 32000 Hz, 2 ch, 96kbps

Описание: В новом, пятнадцатом по счету сезоне телесериала «Солдаты» зрители вновь встретятся с уже полюбившимися героями.

Главным событием станет возвращение в сериал прапорщика Шматко. Так уж случится, что прежде чем вернуться в родные пенаты, герою придется преодолеть массу трудностей, включая встречу с бандитами. Тем не менее, Староконь примет его на службу, но вот кем... Теплые места давно заняты старыми друзьями Шматко — Данилюком и Топаловой.

Подполковник Староконь по-прежнему командует частью. А вот у его друга подполковника Шкалина назревают большие неприятности, которые грозят ему самыми серьезными последствиями.

Появится и новый герой — молодой, энергичный и очень удачливый заместитель по тылу майор Добродей, который придет на смену проворовавшемуся майору Кайгородову. Повышенный интерес к майору Добродею немедленно проявят почти все немногочисленные женщины части.

У Цлава откроются кулинарные способности, что позволит ему начать собственный бизнес. Но и из чепка Цлав уходить не собирается — всюду успевает.

Отношения Топаловой и Цыплакова также получат развитие. На каникулы к Жанне приедет сын, и Цыплакову придется наводить мосты взаимопонимания с ребенком, который вступил в довольно непростой возраст. Мальчик станет постоянным гостем в части, где с ним будет происходить масса забавных случаев, которые так или иначе станут влиять на отношения Цыплакова и Топаловой.

Ну и, наконец, наши деды становятся дембелями. Наступает пора попрощаться со старыми героями — Суслопаровым, Тонышевым, Покрошинским, Бутоновым и Ярошенко, и встречать новый яркий призыв. А вот какими дедушками станут вчерашние духи Погосян, Навадский и Паршин, покажут дальнейшие события сериала.

MediaInfo:

Format : AVI
Format/Info : Audio Video Interleave
File size : 400 MiB
Duration : 46mn 4s
Overall bit rate : 1 214 Kbps
Writing application : VirtualDubMod 1.5.4.1 (build 2178/release)
Writing library : VirtualDubMod build 2178/release

Video
ID : 0
Format : MPEG-4 Visual
Format profile : Advanced Simple@L5
Format settings, BVOP : 1
Format settings, QPel : No
Format settings, GMC : No warppoints
Format settings, Matrix : Custom
Codec ID : XVID
Codec ID/Hint : XviD
Duration : 46mn 4s
Bit rate : 1 111 Kbps
Width : 560 pixels
Height : 416 pixels
Display aspect ratio : 4:3
Frame rate : 25.000 fps
Color space : YUV
Chroma subsampling : 4:2:0
Bit depth : 8 bits
Scan type : Progressive
Compression mode : Lossy
Bits/(Pixel*Frame) : 0.191
Stream size : 366 MiB (91%)
Writing library : XviD 1.2.0.dev47 (UTC 2006-11-01)

Audio
ID : 1
Format : MPEG Audio
Format version : Version 1
Format profile : Layer 3
Mode : Joint stereo
Mode extension : MS Stereo
Codec ID : 55
Codec ID/Hint : MP3
Duration : 46mn 4s
Bit rate mode : Constant
Bit rate : 96.0 Kbps
Channel(s) : 2 channels
Sampling rate : 32.0 KHz
Compression mode : Lossy
Stream size : 31.6 MiB (8%)
Alignment : Aligned on interleaves
Interleave, duration : 80 ms (2.00 video frames)
Interleave, preload duration : 504 ms
Writing library : LAME3.97b
Encoding settings : -m j -V 4 -q 2 -lowpass 15.1 -b 96

Скриншоты:

Сезон 16:

Год выпуска: 2009
Количество серий: 90
Продолжительность: ~00:47:00 серия
Качество видео: DVDRip

Видео: Xvid, 704x528, ~1713kbps
Аудио: MP3, 48000 Hz, 2 ch, 128kbps

Описание: Главным грустным событием сериала «Солдаты. Дембель неизбежен» станет, конечно, дембель, обычно предшествующий появлению новобранцев. Придётся попрощаться со старыми полюбившимися персонажами. Но на смену им придут новые, не менее интересные герои.

MediaInfo:

Format : AVI
Format/Info : Audio Video Interleave
File size : 636 MiB
Duration : 48mn 0s
Overall bit rate : 1 852 Kbps
Writing application : VirtualDubMod 1.5.10.3 | www.virtualdub-fr.org || (build 2550/release)
Writing library : VirtualDubMod build 2550/release

Video
ID : 0
Format : MPEG-4 Visual
Format profile : Advanced Simple@L5
Format settings, BVOP : 2
Format settings, QPel : No
Format settings, GMC : No warppoints
Format settings, Matrix : Default (H.263)
Codec ID : XVID
Codec ID/Hint : XviD
Duration : 48mn 0s
Bit rate : 1 714 Kbps
Width : 704 pixels
Height : 528 pixels
Display aspect ratio : 4:3
Frame rate : 25.000 fps
Color space : YUV
Chroma subsampling : 4:2:0
Bit depth : 8 bits
Scan type : Progressive
Compression mode : Lossy
Bits/(Pixel*Frame) : 0.184
Stream size : 588 MiB (93%)
Writing library : XviD 1.2.1 (UTC 2008-12-04)

Audio
ID : 1
Format : MPEG Audio
Format version : Version 1
Format profile : Layer 3
Mode : Joint stereo
Mode extension : MS Stereo
Codec ID : 55
Codec ID/Hint : MP3
Duration : 47mn 59s
Bit rate mode : Constant
Bit rate : 128 Kbps
Channel(s) : 2 channels
Sampling rate : 48.0 KHz
Compression mode : Lossy
Stream size : 43.9 MiB (7%)
Alignment : Aligned on interleaves
Interleave, duration : 40 ms (1.00 video frame)
Interleave, preload duration : 504 ms
Writing library : LAME3.98r
Encoding settings : -m j -V 4 -q 0 -lowpass 17 -b 128

Скриншоты:

Сезон 17:

Год выпуска: 2013
Количество серий: 20
Продолжительность: ~00:47:00 серия
Качество видео: SATRip

Видео: Xvid, 720x400, ~1411kbps
Аудио: MP3, 48000 Hz, 2 ch, 192kbps

Описание: Воинская часть полковника Староконя находится под угрозой расформирования. Его давние недруги, полковник Японцев и отставник Колобков, хотят построить на её месте элитный посёлок. Но для осуществления их коварных планов не хватает самой малости: надо доказать начальству, что Староконь - плохой командир, а его подчинённые не могут справиться с выполнением самых простых приказов...

MediaInfo:

Format : AVI
Format/Info : Audio Video Interleave
File size : 552 MiB
Duration : 47mn 47s
Overall bit rate : 1 614 Kbps
Writing application : VirtualDubMod 1.5.10.3 (build 2550/release)
Writing library : VirtualDubMod build 2550/release

Video
ID : 0
Format : MPEG-4 Visual
Format profile : Advanced Simple@L5
Format settings, BVOP : 1
Format settings, QPel : No
Format settings, GMC : No warppoints
Format settings, Matrix : Default (H.263)
Muxing mode : Packed bitstream
Codec ID : XVID
Codec ID/Hint : XviD
Duration : 47mn 47s
Bit rate : 1 412 Kbps
Width : 720 pixels
Height : 400 pixels
Display aspect ratio : 16:9
Frame rate : 25.000 fps
Color space : YUV
Chroma subsampling : 4:2:0
Bit depth : 8 bits
Scan type : Progressive
Compression mode : Lossy
Bits/(Pixel*Frame) : 0.196
Stream size : 483 MiB (88%)
Writing library : XviD 64

Audio
ID : 1
Format : MPEG Audio
Format version : Version 1
Format profile : Layer 3
Mode : Joint stereo
Mode extension : MS Stereo
Codec ID : 55
Codec ID/Hint : MP3
Duration : 47mn 47s
Bit rate mode : Constant
Bit rate : 192 Kbps
Channel(s) : 2 channels
Sampling rate : 48.0 KHz
Compression mode : Lossy
Stream size : 65.6 MiB (12%)
Alignment : Split accross interleaves
Interleave, duration : 40 ms (1.00 video frame)
Interleave, preload duration : 500 ms
Writing library : LAME3.98.2

Скриншоты:

Солдаты. Дембельский альбом:

Год выпуска: 2008
Количество серий: 72
Продолжительность: ~00:50:00 серия
Качество видео: SATRip

Видео: Xvid, 560x416, ~1044kbps
Аудио: MP3, 44100 Hz, 2 ch, 96kbp

Описание: Один из основных творцов "дембельской солдатской книги" — знакомый многим зрителям по сериалу "Солдаты" подполковник Староконь. Именно он, статусный балагур, придаст "Дембельскому альбому" самое бесценное — авторский, рукотворный характер. Вместе со своим беспечным помощником сержантом Сидоровым он создаст неповторимую, яркую "шинельную" телекнигу с индивидуальными пометками о том, что есть:
— Наглядная эволюция солдата российской армии (с бесценными комментариями);
— Бурная жизнь офицерской общаги;
— Нелёгкая воинская наука;
— Настоящая армейская дружба;
— Толковый и бестолковый армейский словарь (включая анекдоты, байки, афоризмы, песни);
— Умение найти своего "любимого" командира.

"Дембельском альбоме" собраны лучшие воспоминания и впечатления об армии: Мастер на все руки - Соколов и романтический Медведев. Неторопливые и смешные Папазобло и Цлав. Вкусный шашлык Кичибекова и душистые пирожки буфетчицы Марины Зотовой и Эвелины. Пустослов Данилюк. Укротитель всех тещ - Шматко. Грозный полковник Колобков и шутливый мастер по воспитательной работе Староконь. Дипломированный ботаник Щур. Педантичный Кудашов и все другие герои армейской саги "Солдаты".

Все они прошли армейскую школу 13 сезонов подряд.

Начинается все с того, что командир части подполковник Староконь застает сержанта Сидорова за "оформлением" дембельского альбома. Что ждёт солдата? Староконь придумывает особое наказание - Сидорову придётся сделать дембельский альбом части.

MediaInfo:

Format : AVI
Format/Info : Audio Video Interleave
File size : 400 MiB
Duration : 50mn 11s
Overall bit rate : 1 115 Kbps
Writing application : VirtualDubMod 1.5.10.2 (build 2542/release)
Writing library : VirtualDubMod build 2542/release

Video
ID : 0
Format : MPEG-4 Visual
Format profile : Advanced Simple@L5
Format settings, BVOP : 1
Format settings, QPel : No
Format settings, GMC : No warppoints
Format settings, Matrix : Default (H.263)
Muxing mode : Packed bitstream
Codec ID : XVID
Codec ID/Hint : XviD
Duration : 50mn 11s
Bit rate : 1 009 Kbps
Width : 560 pixels
Height : 416 pixels
Display aspect ratio : 4:3
Frame rate : 25.000 fps
Color space : YUV
Chroma subsampling : 4:2:0
Bit depth : 8 bits
Scan type : Progressive
Compression mode : Lossy
Bits/(Pixel*Frame) : 0.173
Stream size : 362 MiB (91%)
Writing library : XviD 1.1.0 (UTC 2005-11-22)

Audio
ID : 1
Format : MPEG Audio
Format version : Version 1
Format profile : Layer 3
Mode : Joint stereo
Codec ID : 55
Codec ID/Hint : MP3
Duration : 50mn 11s
Bit rate mode : Constant
Bit rate : 96.0 Kbps
Channel(s) : 2 channels
Sampling rate : 44.1 KHz
Compression mode : Lossy
Stream size : 34.5 MiB (9%)
Alignment : Split accross interleaves
Interleave, duration : 40 ms (1.00 video frame)
Interleave, preload duration : 500 ms

Скриншоты:

Скриншоты:


Все раздачи сериала "Солдаты"


Смотреть Online

http://moonwalk.cc/serial/5de99159c2e160ff6224d5ecc6764e0a/iframe
Детали торрента:
Название:Солдаты (2004-2013) DVDRip / SATRip (сезон 1-17 + Дембельский альбом, серии 1-633 из 633)
Дата добавления:23 Окт 2015 20:10:58
Размер:300 GB
Раздают:9
Качают:2
Форум:Солдаты

All rights reserved © 2015-2018