TORRENTS45.XYZ

Скачать КВН-2015. Премьер лига (2015) HDTVRip [H.264/720p] [Весь сезон]


КВН-2015. Вся премьер-лига 2015 года
Телекомпания: Первый канал
Жанр: Тв-шоу, юмор

Описание:
КВН — телевизионные юмористические игры, в которых команды различных коллективов соревнуются в юмористических ответах на заданные вопросы, импровизациях на заданные темы, разыгрывании заранее заготовленных сцен и т. д.

Продолжительность: Каждая игра х 01:15:00
Качество: HDTVRip 720p

Видео: H.264/AVC 1280x720, 4600 kbps 0.2 bit/pix
Аудио: 48.0 KHz, 2 ch 192 kbps

Описание выпусков

1-1/8

Продолжительность: 01:15:54
Перевод: Не требуется
Русские субтитры: нет

Дата игры: 04.03.2015
Дата эфира: 18.07.2015


Команды: Город развлечений (Москва), Москва не сразу строилась (Москва), Губерния (Сборная Оренбургской губернии и республики Башкортостан), Хара Морин (Улан-Удэ), Доброжелательный Роман (Санкт-Петербург), Нате (ст. Брюховецкая), Самара (Самара), Проигрыватель (Тамбов)

Наступила середина лета, а это значит, что наступила пора эфиров Премьер-лиги. Сегодня мы увидим первую игру этого сезона. Трудно сказать, что смотреть на это действо стало приятнее, но что-то всё же поменялось: чего-то откровенно скучного здесь вы вряд ли найдёте, но и феерии искромётного юмора ждать не стоит.

Тема сезона: Удовольствия ради
Жюри: Елена Гущина, Айдар Гараев, Кирилл Коковкин, Виктор Щетков (команда КВН "Союз")

Биатлон
В этом году первым конкурсом снова стал биатлон. В первой игре команды немного ошалело смотрели на новый зал и пытались не слететь на первых кругах, ведь в полноценном смысле конкурс в первых играх всего один. Несмотря на правило о том, что с каждым кругом должна уходить лишь одна команда, команды целыми пачками уходили на штрафные круги, а то и вовсе покидали конкурс.

Фристайл Игра на выживание

Самара
- обучение этикету
- на криминальной разборке
- споры о выборе места проведения чемпионата мира по футболу
- суд

Проигрыватель
- кроссовер "Любовь и голуби" и "Властелина колец"
- Амаяк Акопян против Росомахи
- предыстории песен
- первый русский народный фильм ужасов

Москва не сразу строилась
- у девушки не получилось вынести парню мозг
- девушка не взяла телефон, когда ей звонила мама
- школьный класс нарядил чучело масленицы как свою учительницу
- семья поругалась за 15 минут до прихода гостей
- девушка смотрит триллер "Кровавая ночь 5"

Нате
- папочка учит как играть в КВН
- молодёжь в любом брюховецком дворе
- на опознании преступника
- бракоразводный процесс в Брюховецкой

Хара Морин
- очень ответственный самурай
- на чемпионате мира по лёгкой атлетике судья немного заскучал
- скандал в команде

Губерния
- песня охраннику зала
- противопоставление Настеньке
- сосед КВН
- комментатор стометровки
- самый любопытный человек на расстреле
- заседание ООН

Доброжелательный Роман
- петербуржский интеллигент
- петербуржский телефонный звонок
- русский человек на открытии парижского музея Гюго
- судебные приставы в старинной петербуржской квартире

Город развлечений
- парень 3 года ходит в один и тот же магазин и никак не может рассмешить кассиршу
- на премьере фильма "Хоббит"

2-1/8

Продолжительность: 01:11:26
Перевод: Не требуется
Русские субтитры: нет

Дата игры: 05.03.2015
Дата эфира: 25.07.2015


Команды: Сборная ВШЭ (Москва), Мега (Москва), Nаполеон Dинамит (Челябинская область), Сборная Баку, Всё серьёзно (Кемерово), Сборная БФУ им. И. Канта (Калининград), Золотой рог (Владивосток), Бумеранг (Барнаул)
Продолжаем наблюдать за играми Премьер-лиги этого года. Во вторую игру сумели впихнуть аж целых восемь команд, что значит, что времени на одно выступление осталось ещё меньше. Трудно сказать, что команды явно не тянут, отнюдь, проблески есть, и немало, но их распределение оставляет желать лучшего.

Тема сезона: Удовольствия ради
Жюри: Сергей Оборин, Леонид Моргунов, Филипп Воронин, Тимур Бабъяк

Биатлон
В этом году в играх одной восьмой финала первым конкурсом снова стал биатлон. В первой игре команды немного ошалело смотрели на новый зал и пытались не слететь на первых кругах, ведь в полноценном смысле конкурс в первых играх всего один. Несмотря на правило о том, что с каждым кругом должна уходить лишь одна команда, команды целыми пачками уходили на штрафные круги, а то и вовсе покидали конкурс.

Фристайл Игра на выживание

Сборная Баку
- песня о неловких ситуациях
- борьба с самим собой
- мечта любого коррупционера
- на берегу каспийского моря
- в одном из наиболее чёрных районов Баку

Nаполеон Dинамит
- имбецил
- Олег Газманов переходит на тёмную сторону силы
- дальнобойщик в пути
- выступление группы "Любэ" на дне города
- дальнобойщик в конце пути
- друзья
- выступление группы "Любэ" на дне города

Золотой рог
- способ разбогатеть
- бизнес-идеи

Бумеранг
- встреча двух старых школьных друзей
- бабушке по ошибке 32 раза сделали рентген
- в кабинете психолога
- подпольная школа кунг-фу

Сборная ВШЭ
- специалист по успокаиванию женщин
- профессиональный шашлычник третий час сушит бельё
- Ангела Меркель в кабинете Путина
- парень пришёл на разборку со своими родителями
- неточная стрижка в парикмахерской
- конкурс красоты в ПТУ
- на уроке физкультуры ученик перестал всё понимать с самого начала
- очень затянутые голливудские сцены

Мега
- тупой качок
- смешная реприза
- первое выступление со словами
- пульт от Олега
- труп на сцене

Сборная БФУ им. И. Канта
- случай с российским биатлонистом
- товарищеский матч между "Балтикой" и "ЦСКА"
- мужика с барахолки ограбили и он пришёл жаловаться в РУВД
- муж везет жену с концерта Стаса Михайлова
- в отделении налоговой инспекции
- русские туристы на отечественных курортах со старыми привычками

Всё серьёзно
- на московской дороге
- учителя немного переотмечали
- жена доверила мужу заказать на день рождения ребёнка аниматора
- ведущий КВН в ночь перед игрой

3-1/8

Продолжительность: 01:12:22
Перевод: Не требуется
Русские субтитры: нет

Дата игры: 06.03.2015
Дата эфира: 01.08.2015


Команды: Фулл Хаус (Москва), В объективе (Москва), Армада (Оренбург), Сборная КазЭУ (Алматы), Сборная Ямала, Добрый вечер (Альметьевск), Сборная Уфы, Ваза (Кемерово)

Завершаем первый этап отбора команд Премьер-лиги. Сегодня последняя из трёх игра 1/8 финала. В этой игре собрались команды, выступления которых по большей части состоят из коротких миниатюр, но при этом в игре очень мало "случаев в...". Трудно сравнивать эту игру с предыдущими т.к. команды в некотором смысле отличаются от команд в предыдущих играх тем, что у них выступления, несмотря на изобилие миниатюр, вполне законченные и целостные.

Тема сезона: Удовольствия ради
Жюри: Сергей Оборин, Леонид Моргунов, Филипп Воронин, Тимур Бабъяк

Биатлон
В этом году в играх одной восьмой финала первым конкурсом снова стал биатлон. В первой игре команды немного ошалело смотрели на новый зал и пытались не слететь на первых кругах, ведь в полноценном смысле конкурс в первых играх всего один. Несмотря на правило о том, что с каждым кругом должна уходить лишь одна команда, команды целыми пачками уходили на штрафные круги, а то и вовсе покидали конкурс.

Фристайл Игра на выживание

Ваза
- парень собрался ночью идти пешком домой
- парень возвращается домой как можно тише
- что было бы, если в фильме "Паранормальное явление" снимался актёр КВН
- на тусовке один из друзей засыпает
- попытка познакомиться с девушкой на вечеринке

Сборная КазЭУ
- стрелка двух казахских банд
- расставание по-казахски
- в казахской парикмахерской
- встреча команды по приезде в Москву

Сборная Ямала
- подарок с Ямала
- настоящий ямалец
- песня про ямальскую стриптизёршу
- взятка полицейскому
- вопрос гуглу

В объективе
- подарок девушки парню на день рождения
- девушка встретила своего бывшего парня
- неуверенные патрули в метро
- девушки играют в покер
- апогей семейной ссоры
- парень думает, что переписывается с одной девушкой

Сборная Уфы
- дриблинг в гандболе
- отличие студента-бюджетника от остальных
- встреча гостей Лукашенко
- советчик в любом российском дворе
- необычная очередь в больнице
- конец любого российского корпоратива
- шопинг в международный женский день
- предложение девушке во время игры

Армада
- выброс мусора
- девушка обыграла своего парня в FIFA
- у кукловода в "Спокойной ночи, малыши!" зачесалась рука
- очень вежливое ограбление
- сага по мотивам сказки "Рапунцель"
- очень вежливая казнь

Добрый вечер
- обычный подросток двенадцатый час сидит за компьютером
- новая госуслуга
- кошмар любого КВНщика
- в раздевалке футбольной команды 3 дивизиона перед матчем

Фулл Хаус
- очень игривая пара
- Дмитрий Губерниев комментирует старт 5 российских спортсменов
- родственник поздравляет с днём рождения будто он даёт взятку
- если бы у Владимира Познера была не такая интересная жизнь
- мечта преподавателя экономики

1-1/4

Продолжительность: 01:15:32
Перевод: Не требуется
Русские субтитры: нет

Дата игры: 13.05.2015
Дата эфира: 08.08.2015


Команды: Всё серьёзно (Кемерово), Сборная Баку, Мега (Москва), Сборная ВШЭ (Москва), Доброжелательный Роман (Санкт-Петербург), Сборная Уфы
Прошли первые отборочные игры одной восьмой сезона, а это значит, что отсеялось больше половины команд. Сегодня из оставшихся двенадцати команд играет первая половина. Со времени прошлой игры прошло более двух месяцев, но, как может показаться, некоторым командам даже этого времени не хватило, чтобы подготовить материал для выступления. Итак, первый четвертьфинал!

Тема сезона: Удовольствия ради
Жюри: Айдар Гараев, Герман Иванов, Леонид Моргунов, Тимур Бабъяк

Приветствие Добавьте нас в друзья

Сборная Баку
- переросшая дружба
- однорукому показалось
- перемена в азербайджанской школе
- первые продвинутые аксакалы

Сборная Уфы
- у мальчика слишком рано сломался голос
- Кержаков попал в финал Лиги чемпионов
- ученик, проведший всё лето у бабушки, на линейке первого сентября
- в семье кукловода
- песня детям, которые ходили не на желаемые секции

Сборная ВШЭ
- на свадьбе
- игривые инкассаторы
- девушка незаметно читает СМСки своего парня
- отец пришёл записывать своего сына на секцию борьбы
- девушка в ночном клубе
- ученик перестал всё понимать с самого начала на уроке истории

Мега
- номер от Олега
- капитан Степан Борода
- командные браслеты

Всё серьёзно
- бритьё бород
- бесцеремонный парень в клубе
- участник "Поля чудес" поймал кричавшего громче всех "Приз" зрителя
- две пары застряли в лифте
- на "Что? Где? Когда?" Барщевский неправильно подсказал Друзю
- процедура покупки русских футболистов

Доброжелательный Роман
- распродажа Бродского
- в подмосковном лесу
- на заседании кабинета министров
- в окружённом полицией караоке-баре
- летние туристы в Петербурге

Разминка Общение в чате
В четвертьфиналах вторым конкурсом оказалась разминка. Несмотря на то, что конкурс проходил несколько вяло, соревнования за 1 балл проходили достаточно оживлённо.

Музыкальная фишка Наша тема

Сборная Уфы
- песня про свои мечты

Сборная ВШЭ
- своя версия фильма "Шаг вперёд и два назад"

Сборная Баку
- песня о фишках Азербайджана

Всё серьёзно
- клуб, в который точно отпустит мама

Мега
- мюзикл по мотивам сказки "Аладдин"

Доброжелательный Роман
- доброжелательный опрос

2-1/4

Продолжительность: 01:14:53
Перевод: Не требуется
Русские субтитры: нет

Дата игры: 14.05.2015
Дата эфира: 15.08.2015


Команды: Фулл Хаус (Москва), Сборная БФУ им. И. Канта (Калининград), Город развлечений (Москва), Москва не сразу строилась (Москва), Хара Морин (Улан-Удэ), Ваза (Кемерово)

Завершается второй уровень отсева команд в Премьер-лиге. Сегодня второй четвертьфинал. Если сравнить наборы команд в четвертьфиналах, субъективно может показаться, что во втором четвертьфинале собрались более собранные, более опытные команды, что от них стоит ожидать чего-то стоящего, и это ожидание вас не обманет - команды показали очень достойные выступления, несмотря на невероятно жёсткие временные рамки.

Тема сезона: Удовольствия ради
Жюри: Филипп Воронин, Герман Иванов, Леонид Моргунов, Тимур Бабъяк

Приветствие Добавьте нас в друзья

Ваза
- халявщик на "Что? Где? Когда?"
- батя вошёл в кураж
- довольная учительница пришла в школу
- через 5 минут после ссоры с девушкой
- довольный учитель труда пришёл в школу
- поход школьного класса в театр

Фулл Хаус
- мужик закупился в магазине по списку, но забыл, где живёт
- влюблённая пара играет в "Крокодила"
- на приёме у ЛОРа в военкомате
- официант, который не пользуется блокнотом

Москва не сразу строилась
- у брошенной девушки в телефоне нет грустных песен
- в университете
- на Красной площади
- щедрый отец протрезвел
- девушка впервые играет с парнем в компьютерные игры
- перевод песен на национальных языках на "Евровидении"

Сборная БФУ им. И. Канта
- почему патрульные полицейские ходят втроём
- папа после посиделки с друзьями забрал сына из детского сада
- надзиратель немного подружился с одним из заключённых
- в антикафе в подвале обычной хрущёвки
- задержка "Ночных волков" на польской границе

Хара Морин
- состав команды
- наставление мэра
- ссора девушек
- семейная ссора

Город развлечений
- школьный урок музыки
- на дороге
- в кинотеатре на премьере фильма "Мстители"

Разминка Общение в чате
В четвертьфиналах вторым конкурсом оказалась разминка. Несмотря на то, что конкурс проходил несколько вяло, команды просто так отдавать десятые балла не желали.

Музыкальная фишка Наша тема

Фулл Хаус
- песня о бесстрашии русского человека (Отпетые мошенники - "Всяко-разно")

Хара Морин
- безуспешная попытка спеть песню

Ваза
- история любви (Серёга - "Возле дома твоего")

Сборная БФУ им. И. Канта
- музыкально-интеллектуальное шоу "Пришёл, услышал, угадал"

Москва не сразу строилась
- чувства девушки после расставания с парнем (Ирина Муравьёва - "Позвони мне, позвони")

Город развлечений
- песня о странностях в повседневной жизни (Ленинград - "П.П.")

1-1/2

Продолжительность: 01:08:43
Перевод: Не требуется
Русские субтитры: нет

Дата игры: 17.06.2015
Дата эфира: 22.08.2015


Команды: Москва не сразу строилась (Москва), Мега (Москва), Сборная Баку, Сборная Уфы, Ваза (Кемерово)
Наступила череда полуфиналов, а это значит, что у команд остался последний шанс попасть в финал. Возможно, что команды не привыкли к таким коротким интервалам между играми, ведь после последних игр прошёл всего месяц, что не могло не сказаться на командах: на самой игре в зале команды играли не два, а три конкурса. Вторым конкурсом игралась разминка, которая, по слухам, представляла собой настолько печальное зрелище, что её решили не оценивать и в телеверсию игры она не попала. А что было в остальной части игры, смотрите сами.

Тема сезона: Удовольствия ради
Тема игры: Шаг вперёд
Жюри: Айдар Гараев, Герман Иванов, Ольга Картункова, Филипп Воронин

Приветствие

Ваза
- ожидаемая преподавателем реакция на шутки
- часовой на Красной площади
- друг смотрит рентгеновский снимок
- друзья встречают друга после вечеринки
- примерка нелепой одежды в магазине
- общественные организации по борьбе с чем-либо

Сборная Баку
- песня-сравнение Москвы и азербайджана
- песня о любимой дочке
- санитары-пекари
- песня о проверке президента
- азербайджано-римская война

Сборная Уфы
- проверка строящегося стадиона комиссией FIFA
- шахматист под допингом
- семья в торговом центре
- в поликлинике в 6 часов утра
- на пикнике
- спортивные комментаторы, дающие много ненужной статистики
- староста на выпускном
- авторитетный футбольный игрок среди игроков замены

Мега
- конец выступления
- удивление зала
- конкурс угадываний
- котёнок с улицы
- расследование гаагского суда
- поединок двух идиотов

Москва не сразу строилась
- девушка взорвала парню мозг
- родители не определились с секцией занятий для ребёнка
- радостная утренняя телепрограмма
- перед проверкой в контактном зоопарке
- у русского туриста перед шведским столом осталось место только для чего-то одного
- выкуп невесты в её подъезде
- водитель такси ждёт семейную пару

Финальный номер

Ваза
- придуманная грустная песня

Сборная Баку
- современная версия "Человека-амфибии"

Сборная Уфы
- "раскачка" песнями абсолютно любой публики (??? - "???")

Москва не сразу строилась
- парень восьмой час ждёт свою девушку возле примерочной

Мега
- попытка входа в финал с помощью старого хита (Кай Метов - "Position №2")

2-1/2

Продолжительность: 01:14:14
Перевод: Не требуется
Русские субтитры: нет

Дата игры: 18.06.2015
Дата эфира: 29.08.2015


Команды: Сборная ВШЭ (Москва), Город развлечений (Москва), Всё серьёзно (Кемерово), Хара Морин (Улан-Удэ), Доброжелательный Роман (Санкт-Петербург)
Сегодня у второй пятёрки полуфиналистов последний шанс выдать на-гора из своих закромов припасённый убойный материал с целью прохождения в финал Премьер-лиги 2015 года. Состав этого полуфинала явно сильнее первого, и в течение игры команды, несмотря на соперничество, беспроблемно помогали друг другу. По-видимому, сказалось отсутствие разминки, которая изначально планировалась в составе игры, однако была убрана после неудачного опыта проведения этого конкурса в первом полуфинале.

Тема сезона: Удовольствия ради
Тема игры: Шаг вперёд
Жюри: Айдар Гараев, Герман Иванов, Ольга Картункова, Филипп Воронин

Приветствие

Сборная ВШЭ
- девушка на занятиях по танцам после пропуска одного занятия
- парень решил сделать предложение девушке в ночном клубе
- на курортной дискотеке
- девушка сюсюкает с тараканом
- Фабио Капелло вызвали на разговор в РФС
- реклама на региональном телевидении
- мальчик перестал всё понимать с самого начала на уроке физики

Город развлечений
- взрослые подыгрывают детям в детских играх
- в полицейском участке
- девушка привела родителей знакомиться с парнем, который работает в тату-салоне

Всё серьёзно
- самая несерьёзная команда
- дегустатор энергетических напитков сразу после пробы
- в ночном клубе
- ограбление магазина интимных товаров
- любимчик преподавателя на контрольной
- "стрелка" где-то за городом
- ролевые игры молодой пары
- зона досмотра счастливого путешествия по семейной жизни
- ожидаемая форма дорогих видеоотчётов о свадьбе

Хара Морин
- компрометирующие фото в квартире Айдара Гараева
- каратист в команде
- самураи на выпускном
- ЕГЭ по физкультуре
- семейный раздор ради команды

Доброжелательный Роман
- петербуржский интеллигент занимает 300 рублей
- ответы по ЕГЭ
- писатель в отделении полиции
- автор бестселлера "Я не подкаблучник" на автограф-сессии
- ночной эфир петербуржского регионального телевидения
- сдача квартиры в центре Петербурга

Финальный номер

Хара Морин
- анонс финального выступления команды

Доброжелательный Роман
- доказательство, что каждый мужчина - гусар (из кинофильма "Гусарская баллада" - "Песня гусар (Давным-давно)")

Город развлечений
- музыкальный апокалипсис

Всё серьёзно
- встреча дома проигравшего КВНщика (Елена Камбурова - "Песня о разлуке")

Сборная ВШЭ
- мюзикл "Чудовище и чудовище"

Финал

Продолжительность: 01:18:52
Перевод: Не требуется
Русские субтитры: нет

Дата игры: 04.09.2015
Дата эфира: 05.09.2015


Команды: Сборная Уфы, Москва не сразу строилась (Москва), Мега (Москва), Хара Морин (Улан-Удэ), Город развлечений (Москва), Доброжелательный Роман (Санкт-Петербург)
Завершается тринадцатый сезон Премьер-лиги. Традиционно это происходит в первые выходные сентября. В зале игра проходила вчера вечером, и, к сожалению, монтажёры будто бы решили не напрягаться и собрали эфирную версию кое-как. В игре по труднообъяснимой причине второй конкурс давал очень и очень весомое преимущество, которое было очень трудно превозмочь в других двух конкурсах. Итак, завершающая игра сезона и первый участник Высшей лиги следующего года!

Тема сезона: Удовольствия ради
Жюри: Валдис Пельш, Юлий Гусман, Александр Васильевич Масляков

Приветствие На позитиве

Сборная Уфы
- морально тяжёлый старт российского бегуна
- после первой тренировки с Леонидом Слуцким
- награждение российского бегуна
- подпевка Григория Лепса
- сюрприз гостям в передаче "Давай поженимся!"

Мега
- выступление без сучка и задоринки
- взятка
- торт со стриптизёром
- внезапная адекватность

Москва не сразу строилась
- молодая пара решила поиграть в футбол на приставке
- на годовщине свадьбы молодая пара не может запустить китайский фонарик
- на свидании

Город развлечений
- в кабинете директора театрального института
- обычное придорожное кафе

Хара Морин
- незадолго до финала где-то в Бурятии
- Таня прогоняет Чимита из команды

Доброжелательный Роман
- организованная преступность в картинных галереях
- антракт спектакля
- ночная эротическая передача на петербуржском телевидении

Биатлон
Традиционный для финала конкурс. Сегодня он играется по принципу "победитель забирает всё", а это значит, что лучшая команда получает весомое преимущество в три балла.

Фристайл Гость из Высшей лиги

Сборная Уфы и Герман Иванов
- множество ролей Германа Иванова

Город развлечений и Александр Шнайдер
- история на улице Строителей в доме КВН с балконом

Доброжелательный Роман и Эльдияр Кененсаров
- отрывки из романа "Мастер и Маргарита"

Мега и Айдар Гараев
- возврат бракованной команды

Москва не сразу строилась и Михаил Стогниенко
- любовный треугольник: он, она и кот

Хара Морин и Омар Алибутаев
- сказка "Белоснежка и семь гномов"

MediaInfo

1-1/8

General
Unique ID : 181273050189352108232004888586012832908 (0x885FEB676EC801988B94B7DD66DFB48C)
Complete name : H:\трекер\KVN.2015.Premier.720p.AVC.All(01-08)\KVN.2015.Premier.(01).1.1-8.HDTVRip.720p.mkv
Format : Matroska
Format version : Version 4 / Version 2
File size : 2.54 GiB
Duration : 1h 15mn
Overall bit rate : 4 794 Kbps
Encoded date : UTC 2015-07-19 21:38:16
Writing application : mkvmerge v8.2.0 ('World of Adventure') 64bit
Writing library : libebml v1.3.1 + libmatroska v1.4.2
Attachements : cover.jpg
DURATION : 01:15:54.288000000
NUMBER_OF_FRAMES : 189762
NUMBER_OF_BYTES : 109302912
_STATISTICS_WRITING_APP : mkvmerge v8.2.0 ('World of Adventure') 64bit
_STATISTICS_WRITING_DATE_UT : 2015-07-19 21:38:16
_STATISTICS_TAGS : BPS DURATION NUMBER_OF_FRAMES NUMBER_OF_BYTES

Video
ID : 1
Format : AVC
Format/Info : Advanced Video Codec
Format profile : High@L4
Format settings, CABAC : Yes
Format settings, ReFrames : 9 frames
Codec ID : V_MPEG4/ISO/AVC
Duration : 1h 15mn
Bit rate : 4 600 Kbps
Width : 1 280 pixels
Height : 720 pixels
Display aspect ratio : 16:9
Frame rate mode : Constant
Frame rate : 25.000 fps
Color space : YUV
Chroma subsampling : 4:2:0
Bit depth : 8 bits
Scan type : Progressive
Bits/(Pixel*Frame) : 0.200
Stream size : 2.39 GiB (94%)
Writing library : x264 core 146 r2538 121396c
Encoding settings : cabac=1 / ref=9 / deblock=1:-1:-1 / analyse=0x3:0x133 / me=umh / subme=11 / psy=1 / psy_rd=1.05:0.00 / mixed_ref=1 / me_range=32 / chroma_me=1 / trellis=2 / 8x8dct=1 / cqm=0 / deadzone=21,11 / fast_pskip=0 / chroma_qp_offset=-2 / threads=12 / lookahead_threads=2 / sliced_threads=0 / nr=0 / decimate=0 / interlaced=0 / bluray_compat=0 / constrained_intra=0 / bframes=8 / b_pyramid=2 / b_adapt=2 / b_bias=0 / direct=3 / weightb=1 / open_gop=0 / weightp=2 / keyint=250 / keyint_min=25 / scenecut=40 / intra_refresh=0 / rc=2pass / mbtree=0 / bitrate=4600 / ratetol=1.0 / qcomp=0.65 / qpmin=0 / qpmax=69 / qpstep=4 / cplxblur=20.0 / qblur=0.5 / ip_ratio=1.40 / pb_ratio=1.30 / aq=1:1.00
Language : Russian
Default : Yes
Forced : No
DURATION : 01:15:54.280000000
NUMBER_OF_FRAMES : 113857
NUMBER_OF_BYTES : 2618391698
_STATISTICS_WRITING_APP : mkvmerge v8.2.0 ('World of Adventure') 64bit
_STATISTICS_WRITING_DATE_UT : 2015-07-19 21:38:16
_STATISTICS_TAGS : BPS DURATION NUMBER_OF_FRAMES NUMBER_OF_BYTES

Audio
ID : 2
Format : MPEG Audio
Format version : Version 1
Format profile : Layer 2
Codec ID : A_MPEG/L2
Codec ID/Hint : MP2
Duration : 1h 15mn
Bit rate mode : Constant
Bit rate : 192 Kbps
Channel(s) : 2 channels
Sampling rate : 48.0 KHz
Compression mode : Lossy
Stream size : 104 MiB (4%)
Language : Russian
Default : Yes
Forced : No

2-1/8

General
Unique ID : 205175657818631725512772163234620171745 (0x9A5B64F27F7A31548514E1369646E5E1)
Complete name : H:\трекер\KVN.2015.Premier.720p.AVC.All(01-08)\KVN.2015.Premier.(02).2.1-8.HDTVRip.720p.mkv
Format : Matroska
Format version : Version 4 / Version 2
File size : 2.39 GiB
Duration : 1h 11mn
Overall bit rate : 4 793 Kbps
Encoded date : UTC 2015-07-26 15:01:47
Writing application : mkvmerge v8.2.0 ('World of Adventure') 64bit
Writing library : libebml v1.3.1 + libmatroska v1.4.2
Attachements : cover.jpg
DURATION : 01:11:26.184000000
NUMBER_OF_FRAMES : 178591
NUMBER_OF_BYTES : 102868416
_STATISTICS_WRITING_APP : mkvmerge v8.2.0 ('World of Adventure') 64bit
_STATISTICS_WRITING_DATE_UT : 2015-07-26 15:01:47
_STATISTICS_TAGS : BPS DURATION NUMBER_OF_FRAMES NUMBER_OF_BYTES

Video
ID : 1
Format : AVC
Format/Info : Advanced Video Codec
Format profile : High@L4
Format settings, CABAC : Yes
Format settings, ReFrames : 9 frames
Codec ID : V_MPEG4/ISO/AVC
Duration : 1h 11mn
Bit rate : 4 600 Kbps
Width : 1 280 pixels
Height : 720 pixels
Display aspect ratio : 16:9
Frame rate mode : Constant
Frame rate : 25.000 fps
Color space : YUV
Chroma subsampling : 4:2:0
Bit depth : 8 bits
Scan type : Progressive
Bits/(Pixel*Frame) : 0.200
Stream size : 2.25 GiB (94%)
Writing library : x264 core 146 r2538 121396c
Encoding settings : cabac=1 / ref=9 / deblock=1:-1:-1 / analyse=0x3:0x133 / me=umh / subme=11 / psy=1 / psy_rd=1.05:0.00 / mixed_ref=1 / me_range=32 / chroma_me=1 / trellis=2 / 8x8dct=1 / cqm=0 / deadzone=21,11 / fast_pskip=0 / chroma_qp_offset=-2 / threads=12 / lookahead_threads=2 / sliced_threads=0 / nr=0 / decimate=0 / interlaced=0 / bluray_compat=0 / constrained_intra=0 / bframes=8 / b_pyramid=2 / b_adapt=2 / b_bias=0 / direct=3 / weightb=1 / open_gop=0 / weightp=2 / keyint=250 / keyint_min=25 / scenecut=40 / intra_refresh=0 / rc=2pass / mbtree=0 / bitrate=4600 / ratetol=1.0 / qcomp=0.65 / qpmin=0 / qpmax=69 / qpstep=4 / cplxblur=20.0 / qblur=0.5 / ip_ratio=1.40 / pb_ratio=1.30 / aq=1:1.00
Language : Russian
Default : Yes
Forced : No
DURATION : 01:11:26.160000000
NUMBER_OF_FRAMES : 107154
NUMBER_OF_BYTES : 2464133972
_STATISTICS_WRITING_APP : mkvmerge v8.2.0 ('World of Adventure') 64bit
_STATISTICS_WRITING_DATE_UT : 2015-07-26 15:01:47
_STATISTICS_TAGS : BPS DURATION NUMBER_OF_FRAMES NUMBER_OF_BYTES

Audio
ID : 2
Format : MPEG Audio
Format version : Version 1
Format profile : Layer 2
Codec ID : A_MPEG/L2
Codec ID/Hint : MP2
Duration : 1h 11mn
Bit rate mode : Constant
Bit rate : 192 Kbps
Channel(s) : 2 channels
Sampling rate : 48.0 KHz
Compression mode : Lossy
Stream size : 98.1 MiB (4%)
Language : Russian
Default : Yes
Forced : No

3-1/8

General
Unique ID : 216999751039302879984056003423000954701 (0xA340A1C09A010F61A2189916DBED874D)
Complete name : H:\трекер\KVN.2015.Premier.720p.AVC.All(01-08)\KVN.2015.Premier.(03).3.1-8.HDTVRip.720p.mkv
Format : Matroska
Format version : Version 4 / Version 2
File size : 2.42 GiB
Duration : 1h 12mn
Overall bit rate : 4 794 Kbps
Encoded date : UTC 2015-08-03 17:53:41
Writing application : mkvmerge v8.2.0 ('World of Adventure') 64bit
Writing library : libebml v1.3.1 + libmatroska v1.4.2
Attachements : cover.jpg
DURATION : 01:12:22.032000000
NUMBER_OF_FRAMES : 180918
NUMBER_OF_BYTES : 104208768
_STATISTICS_WRITING_APP : mkvmerge v8.2.0 ('World of Adventure') 64bit
_STATISTICS_WRITING_DATE_UT : 2015-08-03 17:53:41
_STATISTICS_TAGS : BPS DURATION NUMBER_OF_FRAMES NUMBER_OF_BYTES

Video
ID : 1
Format : AVC
Format/Info : Advanced Video Codec
Format profile : High@L4
Format settings, CABAC : Yes
Format settings, ReFrames : 9 frames
Codec ID : V_MPEG4/ISO/AVC
Duration : 1h 12mn
Bit rate : 4 600 Kbps
Width : 1 280 pixels
Height : 720 pixels
Display aspect ratio : 16:9
Frame rate mode : Constant
Frame rate : 25.000 fps
Color space : YUV
Chroma subsampling : 4:2:0
Bit depth : 8 bits
Scan type : Progressive
Bits/(Pixel*Frame) : 0.200
Stream size : 2.28 GiB (94%)
Writing library : x264 core 148 r2579 73ae2d1
Encoding settings : cabac=1 / ref=9 / deblock=1:-1:-1 / analyse=0x3:0x133 / me=umh / subme=11 / psy=1 / psy_rd=1.05:0.00 / mixed_ref=1 / me_range=32 / chroma_me=1 / trellis=2 / 8x8dct=1 / cqm=0 / deadzone=21,11 / fast_pskip=0 / chroma_qp_offset=-2 / threads=6 / lookahead_threads=1 / sliced_threads=0 / nr=0 / decimate=0 / interlaced=0 / bluray_compat=0 / constrained_intra=0 / bframes=8 / b_pyramid=2 / b_adapt=2 / b_bias=0 / direct=3 / weightb=1 / open_gop=0 / weightp=2 / keyint=250 / keyint_min=25 / scenecut=40 / intra_refresh=0 / rc=2pass / mbtree=0 / bitrate=4600 / ratetol=1.0 / qcomp=0.65 / qpmin=0 / qpmax=69 / qpstep=4 / cplxblur=20.0 / qblur=0.5 / ip_ratio=1.40 / pb_ratio=1.30 / aq=1:1.00
Language : Russian
Default : Yes
Forced : No
DURATION : 01:12:22.000000000
NUMBER_OF_FRAMES : 108550
NUMBER_OF_BYTES : 2496359149
_STATISTICS_WRITING_APP : mkvmerge v8.2.0 ('World of Adventure') 64bit
_STATISTICS_WRITING_DATE_UT : 2015-08-03 17:53:41
_STATISTICS_TAGS : BPS DURATION NUMBER_OF_FRAMES NUMBER_OF_BYTES

Audio
ID : 2
Format : MPEG Audio
Format version : Version 1
Format profile : Layer 2
Codec ID : A_MPEG/L2
Codec ID/Hint : MP2
Duration : 1h 12mn
Bit rate mode : Constant
Bit rate : 192 Kbps
Channel(s) : 2 channels
Sampling rate : 48.0 KHz
Compression mode : Lossy
Stream size : 99.4 MiB (4%)
Language : Russian
Default : Yes
Forced : No

1-1/4

General
Unique ID : 172345126186333102062548806123375184388 (0x81A876C40F7BDDA5BCD2A27CAD4E4A04)
Complete name : H:\трекер\KVN.2015.Premier.720p.AVC.All(01-08)\KVN.2015.Premier.(04).1.1-4.HDTVRip.720p.mkv
Format : Matroska
Format version : Version 4 / Version 2
File size : 2.53 GiB
Duration : 1h 15mn
Overall bit rate : 4 794 Kbps
Encoded date : UTC 2015-08-10 19:02:46
Writing application : mkvmerge v8.2.0 ('World of Adventure') 64bit
Writing library : libebml v1.3.1 + libmatroska v1.4.2
Attachements : cover.jpg
DURATION : 01:15:32.496000000
NUMBER_OF_FRAMES : 188854
NUMBER_OF_BYTES : 108779904
_STATISTICS_WRITING_APP : mkvmerge v8.2.0 ('World of Adventure') 64bit
_STATISTICS_WRITING_DATE_UT : 2015-08-10 19:02:46
_STATISTICS_TAGS : BPS DURATION NUMBER_OF_FRAMES NUMBER_OF_BYTES

Video
ID : 1
Format : AVC
Format/Info : Advanced Video Codec
Format profile : High@L4
Format settings, CABAC : Yes
Format settings, ReFrames : 9 frames
Codec ID : V_MPEG4/ISO/AVC
Duration : 1h 15mn
Bit rate : 4 600 Kbps
Width : 1 280 pixels
Height : 720 pixels
Display aspect ratio : 16:9
Frame rate mode : Constant
Frame rate : 25.000 fps
Color space : YUV
Chroma subsampling : 4:2:0
Bit depth : 8 bits
Scan type : Progressive
Bits/(Pixel*Frame) : 0.200
Stream size : 2.38 GiB (94%)
Writing library : x264 core 148 r2579 73ae2d1
Encoding settings : cabac=1 / ref=9 / deblock=1:-1:-1 / analyse=0x3:0x133 / me=umh / subme=11 / psy=1 / psy_rd=1.05:0.00 / mixed_ref=1 / me_range=32 / chroma_me=1 / trellis=2 / 8x8dct=1 / cqm=0 / deadzone=21,11 / fast_pskip=0 / chroma_qp_offset=-2 / threads=6 / lookahead_threads=1 / sliced_threads=0 / nr=0 / decimate=0 / interlaced=0 / bluray_compat=0 / constrained_intra=0 / bframes=8 / b_pyramid=2 / b_adapt=2 / b_bias=0 / direct=3 / weightb=1 / open_gop=0 / weightp=2 / keyint=250 / keyint_min=25 / scenecut=40 / intra_refresh=0 / rc=2pass / mbtree=0 / bitrate=4600 / ratetol=1.0 / qcomp=0.65 / qpmin=0 / qpmax=69 / qpstep=4 / cplxblur=20.0 / qblur=0.5 / ip_ratio=1.40 / pb_ratio=1.30 / aq=1:1.00
Language : Russian
Default : Yes
Forced : No
DURATION : 01:15:32.400000000
NUMBER_OF_FRAMES : 113310
NUMBER_OF_BYTES : 2605876769
_STATISTICS_WRITING_APP : mkvmerge v8.2.0 ('World of Adventure') 64bit
_STATISTICS_WRITING_DATE_UT : 2015-08-10 19:02:46
_STATISTICS_TAGS : BPS DURATION NUMBER_OF_FRAMES NUMBER_OF_BYTES

Audio
ID : 2
Format : MPEG Audio
Format version : Version 1
Format profile : Layer 2
Codec ID : A_MPEG/L2
Codec ID/Hint : MP2
Duration : 1h 15mn
Bit rate mode : Constant
Bit rate : 192 Kbps
Channel(s) : 2 channels
Sampling rate : 48.0 KHz
Compression mode : Lossy
Stream size : 104 MiB (4%)
Language : Russian
Default : Yes
Forced : No

2-1/4

General
Unique ID : 241519451325882325345612426900677549719 (0xB5B2F45005CE7E71B1BFE661AAAB5E97)
Complete name : H:\трекер\KVN.2015.Premier.720p.AVC.All(01-08)\KVN.2015.Premier.(05).2.1-4.HDTVRip.720p.mkv
Format : Matroska
Format version : Version 4 / Version 2
File size : 2.51 GiB
Duration : 1h 14mn
Overall bit rate : 4 794 Kbps
Encoded date : UTC 2015-08-17 19:04:47
Writing application : mkvmerge v8.2.0 ('World of Adventure') 64bit
Writing library : libebml v1.3.1 + libmatroska v1.4.2
Attachements : cover.jpg
DURATION : 01:14:53.472000000
NUMBER_OF_FRAMES : 187228
NUMBER_OF_BYTES : 107843328
_STATISTICS_WRITING_APP : mkvmerge v8.2.0 ('World of Adventure') 64bit
_STATISTICS_WRITING_DATE_UT : 2015-08-17 19:04:47
_STATISTICS_TAGS : BPS DURATION NUMBER_OF_FRAMES NUMBER_OF_BYTES

Video
ID : 1
Format : AVC
Format/Info : Advanced Video Codec
Format profile : High@L4
Format settings, CABAC : Yes
Format settings, ReFrames : 9 frames
Codec ID : V_MPEG4/ISO/AVC
Duration : 1h 14mn
Bit rate : 4 600 Kbps
Width : 1 280 pixels
Height : 720 pixels
Display aspect ratio : 16:9
Frame rate mode : Constant
Frame rate : 25.000 fps
Color space : YUV
Chroma subsampling : 4:2:0
Bit depth : 8 bits
Scan type : Progressive
Bits/(Pixel*Frame) : 0.200
Stream size : 2.36 GiB (94%)
Writing library : x264 core 148 r2579 73ae2d1
Encoding settings : cabac=1 / ref=9 / deblock=1:-1:-1 / analyse=0x3:0x133 / me=umh / subme=11 / psy=1 / psy_rd=1.05:0.00 / mixed_ref=1 / me_range=32 / chroma_me=1 / trellis=2 / 8x8dct=1 / cqm=0 / deadzone=21,11 / fast_pskip=0 / chroma_qp_offset=-2 / threads=6 / lookahead_threads=1 / sliced_threads=0 / nr=0 / decimate=0 / interlaced=0 / bluray_compat=0 / constrained_intra=0 / bframes=8 / b_pyramid=2 / b_adapt=2 / b_bias=0 / direct=3 / weightb=1 / open_gop=0 / weightp=2 / keyint=250 / keyint_min=25 / scenecut=40 / intra_refresh=0 / rc=2pass / mbtree=0 / bitrate=4600 / ratetol=1.0 / qcomp=0.65 / qpmin=0 / qpmax=69 / qpstep=4 / cplxblur=20.0 / qblur=0.5 / ip_ratio=1.40 / pb_ratio=1.30 / aq=1:1.00
Language : Russian
Default : Yes
Forced : No
DURATION : 01:14:53.400000000
NUMBER_OF_FRAMES : 112335
NUMBER_OF_BYTES : 2583403789
_STATISTICS_WRITING_APP : mkvmerge v8.2.0 ('World of Adventure') 64bit
_STATISTICS_WRITING_DATE_UT : 2015-08-17 19:04:47
_STATISTICS_TAGS : BPS DURATION NUMBER_OF_FRAMES NUMBER_OF_BYTES

Audio
ID : 2
Format : MPEG Audio
Format version : Version 1
Format profile : Layer 2
Codec ID : A_MPEG/L2
Codec ID/Hint : MP2
Duration : 1h 14mn
Bit rate mode : Constant
Bit rate : 192 Kbps
Channel(s) : 2 channels
Sampling rate : 48.0 KHz
Compression mode : Lossy
Stream size : 103 MiB (4%)
Language : Russian
Default : Yes
Forced : No

1-1/2

General
Unique ID : 196087490476052705133775931443847687601 (0x938513B3D4CF41C49A064F52222CEDB1)
Complete name : H:\трекер\KVN.2015.Premier.720p.AVC.All(01-08)\KVN.2015.Premier.(06).1.1-2.HDTVRip.720p.mkv
Format : Matroska
Format version : Version 4 / Version 2
File size : 2.30 GiB
Duration : 1h 8mn
Overall bit rate : 4 793 Kbps
Encoded date : UTC 2015-08-24 15:28:50
Writing application : mkvmerge v8.2.0 ('World of Adventure') 64bit
Writing library : libebml v1.3.1 + libmatroska v1.4.2
Attachements : cover.jpg
DURATION : 01:08:43.656000000
NUMBER_OF_FRAMES : 171819
NUMBER_OF_BYTES : 98967744
_STATISTICS_WRITING_APP : mkvmerge v8.2.0 ('World of Adventure') 64bit
_STATISTICS_WRITING_DATE_UT : 2015-08-24 15:28:50
_STATISTICS_TAGS : BPS DURATION NUMBER_OF_FRAMES NUMBER_OF_BYTES

Video
ID : 1
Format : AVC
Format/Info : Advanced Video Codec
Format profile : High@L4
Format settings, CABAC : Yes
Format settings, ReFrames : 9 frames
Codec ID : V_MPEG4/ISO/AVC
Duration : 1h 8mn
Bit rate : 4 600 Kbps
Width : 1 280 pixels
Height : 720 pixels
Display aspect ratio : 16:9
Frame rate mode : Constant
Frame rate : 25.000 fps
Color space : YUV
Chroma subsampling : 4:2:0
Bit depth : 8 bits
Scan type : Progressive
Bits/(Pixel*Frame) : 0.200
Stream size : 2.16 GiB (94%)
Writing library : x264 core 148 r2579 73ae2d1
Encoding settings : cabac=1 / ref=9 / deblock=1:-1:-1 / analyse=0x3:0x133 / me=umh / subme=11 / psy=1 / psy_rd=1.05:0.00 / mixed_ref=1 / me_range=32 / chroma_me=1 / trellis=2 / 8x8dct=1 / cqm=0 / deadzone=21,11 / fast_pskip=0 / chroma_qp_offset=-2 / threads=6 / lookahead_threads=1 / sliced_threads=0 / nr=0 / decimate=0 / interlaced=0 / bluray_compat=0 / constrained_intra=0 / bframes=8 / b_pyramid=2 / b_adapt=2 / b_bias=0 / direct=3 / weightb=1 / open_gop=0 / weightp=2 / keyint=250 / keyint_min=25 / scenecut=40 / intra_refresh=0 / rc=2pass / mbtree=0 / bitrate=4600 / ratetol=1.0 / qcomp=0.65 / qpmin=0 / qpmax=69 / qpstep=4 / cplxblur=20.0 / qblur=0.5 / ip_ratio=1.40 / pb_ratio=1.30 / aq=1:1.00
Language : Russian
Default : Yes
Forced : No
DURATION : 01:08:43.560000000
NUMBER_OF_FRAMES : 103089
NUMBER_OF_BYTES : 2370721341
_STATISTICS_WRITING_APP : mkvmerge v8.2.0 ('World of Adventure') 64bit
_STATISTICS_WRITING_DATE_UT : 2015-08-24 15:28:50
_STATISTICS_TAGS : BPS DURATION NUMBER_OF_FRAMES NUMBER_OF_BYTES

Audio
ID : 2
Format : MPEG Audio
Format version : Version 1
Format profile : Layer 2
Codec ID : A_MPEG/L2
Codec ID/Hint : MP2
Duration : 1h 8mn
Bit rate mode : Constant
Bit rate : 192 Kbps
Channel(s) : 2 channels
Sampling rate : 48.0 KHz
Compression mode : Lossy
Stream size : 94.4 MiB (4%)
Language : Russian
Default : Yes
Forced : No

2-1/2

General
Unique ID : 176602977682575649117983867936371212068 (0x84DC7F0D6E3199EE9785C8EAB8A17F24)
Complete name : H:\трекер\KVN.2015.Premier.720p.AVC.All(01-08)\KVN.2015.Premier.(07).2.1-2.HDTVRip.720p.mkv
Format : Matroska
Format version : Version 4 / Version 2
File size : 2.49 GiB
Duration : 1h 14mn
Overall bit rate : 4 794 Kbps
Encoded date : UTC 2015-08-30 18:29:40
Writing application : mkvmerge v8.2.0 ('World of Adventure') 64bit
Writing library : libebml v1.3.1 + libmatroska v1.4.2
Attachements : cover.jpg
DURATION : 01:14:14.880000000
NUMBER_OF_FRAMES : 185620
NUMBER_OF_BYTES : 106917120
_STATISTICS_WRITING_APP : mkvmerge v8.2.0 ('World of Adventure') 64bit
_STATISTICS_WRITING_DATE_UT : 2015-08-30 18:29:40
_STATISTICS_TAGS : BPS DURATION NUMBER_OF_FRAMES NUMBER_OF_BYTES

Video
ID : 1
Format : AVC
Format/Info : Advanced Video Codec
Format profile : High@L4
Format settings, CABAC : Yes
Format settings, ReFrames : 9 frames
Codec ID : V_MPEG4/ISO/AVC
Duration : 1h 14mn
Bit rate : 4 600 Kbps
Width : 1 280 pixels
Height : 720 pixels
Display aspect ratio : 16:9
Frame rate mode : Constant
Frame rate : 25.000 fps
Color space : YUV
Chroma subsampling : 4:2:0
Bit depth : 8 bits
Scan type : Progressive
Bits/(Pixel*Frame) : 0.200
Stream size : 2.34 GiB (94%)
Writing library : x264 core 148 r2579 73ae2d1
Encoding settings : cabac=1 / ref=9 / deblock=1:-1:-1 / analyse=0x3:0x133 / me=umh / subme=11 / psy=1 / psy_rd=1.05:0.00 / mixed_ref=1 / me_range=32 / chroma_me=1 / trellis=2 / 8x8dct=1 / cqm=0 / deadzone=21,11 / fast_pskip=0 / chroma_qp_offset=-2 / threads=6 / lookahead_threads=1 / sliced_threads=0 / nr=0 / decimate=0 / interlaced=0 / bluray_compat=0 / constrained_intra=0 / bframes=8 / b_pyramid=2 / b_adapt=2 / b_bias=0 / direct=3 / weightb=1 / open_gop=0 / weightp=2 / keyint=250 / keyint_min=25 / scenecut=40 / intra_refresh=0 / rc=2pass / mbtree=0 / bitrate=4600 / ratetol=1.0 / qcomp=0.65 / qpmin=0 / qpmax=69 / qpstep=4 / cplxblur=20.0 / qblur=0.5 / ip_ratio=1.40 / pb_ratio=1.30 / aq=1:1.00
Language : Russian
Default : Yes
Forced : No
DURATION : 01:14:14.800000000
NUMBER_OF_FRAMES : 111370
NUMBER_OF_BYTES : 2561310965
_STATISTICS_WRITING_APP : mkvmerge v8.2.0 ('World of Adventure') 64bit
_STATISTICS_WRITING_DATE_UT : 2015-08-30 18:29:40
_STATISTICS_TAGS : BPS DURATION NUMBER_OF_FRAMES NUMBER_OF_BYTES

Audio
ID : 2
Format : MPEG Audio
Format version : Version 1
Format profile : Layer 2
Codec ID : A_MPEG/L2
Codec ID/Hint : MP2
Duration : 1h 14mn
Bit rate mode : Constant
Bit rate : 192 Kbps
Channel(s) : 2 channels
Sampling rate : 48.0 KHz
Compression mode : Lossy
Stream size : 102 MiB (4%)
Language : Russian
Default : Yes
Forced : No

Финал

General
Unique ID : 175790308485234221505771168732188531619 (0x843FFB5E1785BDEB853059505E605BA3)
Complete name : H:\трекер\KVN.2015.Premier.720p.AVC.All(01-08)\KVN.2015.Premier.(08).Final.HDTVRip.720p.mkv
Format : Matroska
Format version : Version 4 / Version 2
File size : 2.64 GiB
Duration : 1h 18mn
Overall bit rate : 4 794 Kbps
Encoded date : UTC 2015-09-07 18:43:08
Writing application : mkvmerge v8.2.0 ('World of Adventure') 64bit
Writing library : libebml v1.3.1 + libmatroska v1.4.2
Attachements : cover.jpg
DURATION : 01:18:52.488000000
NUMBER_OF_FRAMES : 197187
NUMBER_OF_BYTES : 113579712
_STATISTICS_WRITING_APP : mkvmerge v8.2.0 ('World of Adventure') 64bit
_STATISTICS_WRITING_DATE_UT : 2015-09-07 18:43:08
_STATISTICS_TAGS : BPS DURATION NUMBER_OF_FRAMES NUMBER_OF_BYTES

Video
ID : 1
Format : AVC
Format/Info : Advanced Video Codec
Format profile : High@L4
Format settings, CABAC : Yes
Format settings, ReFrames : 9 frames
Codec ID : V_MPEG4/ISO/AVC
Duration : 1h 18mn
Bit rate : 4 600 Kbps
Width : 1 280 pixels
Height : 720 pixels
Display aspect ratio : 16:9
Frame rate mode : Constant
Frame rate : 25.000 fps
Color space : YUV
Chroma subsampling : 4:2:0
Bit depth : 8 bits
Scan type : Progressive
Bits/(Pixel*Frame) : 0.200
Stream size : 2.48 GiB (94%)
Writing library : x264 core 148 r2597 e86f3a1
Encoding settings : cabac=1 / ref=9 / deblock=1:-1:-1 / analyse=0x3:0x133 / me=umh / subme=11 / psy=1 / psy_rd=1.05:0.00 / mixed_ref=1 / me_range=32 / chroma_me=1 / trellis=2 / 8x8dct=1 / cqm=0 / deadzone=21,11 / fast_pskip=0 / chroma_qp_offset=-2 / threads=6 / lookahead_threads=1 / sliced_threads=0 / nr=0 / decimate=0 / interlaced=0 / bluray_compat=0 / constrained_intra=0 / bframes=8 / b_pyramid=2 / b_adapt=2 / b_bias=0 / direct=3 / weightb=1 / open_gop=0 / weightp=2 / keyint=250 / keyint_min=25 / scenecut=40 / intra_refresh=0 / rc=2pass / mbtree=0 / bitrate=4600 / ratetol=1.0 / qcomp=0.65 / qpmin=0 / qpmax=69 / qpstep=4 / cplxblur=20.0 / qblur=0.5 / ip_ratio=1.40 / pb_ratio=1.30 / aq=1:1.00
Language : Russian
Default : Yes
Forced : No
DURATION : 01:18:52.400000000
NUMBER_OF_FRAMES : 118310
NUMBER_OF_BYTES : 2720812645
_STATISTICS_WRITING_APP : mkvmerge v8.2.0 ('World of Adventure') 64bit
_STATISTICS_WRITING_DATE_UT : 2015-09-07 18:43:08
_STATISTICS_TAGS : BPS DURATION NUMBER_OF_FRAMES NUMBER_OF_BYTES

Audio
ID : 2
Format : MPEG Audio
Format version : Version 1
Format profile : Layer 2
Codec ID : A_MPEG/L2
Codec ID/Hint : MP2
Duration : 1h 18mn
Bit rate mode : Constant
Bit rate : 192 Kbps
Channel(s) : 2 channels
Sampling rate : 48.0 KHz
Compression mode : Lossy
Stream size : 108 MiB (4%)
Language : Russian
Default : Yes
Forced : No
Скриншоты:

Все релизы КВН 2015 Премьер лига
Время раздачи:24/7
Детали торрента:
Название:КВН-2015. Премьер лига (2015) HDTVRip [H.264/720p] [Весь сезон]
Дата добавления:24 Сен 2015 11:23:57
Размер:19,8 GB
Раздают:1
Качают:0
Форум:КВН

All rights reserved © 2015-2018