TORRENTS45.XYZ

Скачать TesseracT - Polaris (2015) [FLAC|tracks+.cue]<Progressive Math Metal>


TesseracT - Polaris (2015)
Год: 2015
Жанр: Progressive Math Metal
Продолжительность: 00:46:45
Лейбл: Kscope
№ по каталогу: KSCOPE325
Страна: UK
Кодек: FLAC
Тип рипа: tracks+.cue
Битрейт: Lossless
Источник: FiH :респект:
Треклист:

01. Dystopia
02. Hexes
03. Survival
04. Tourniquet
05. Utopia
06. Phoenix
07. Messenger
08. Cages
09. Seven Names

Отчёт ЕАС:

Код:

Exact Audio Copy V1.1 from 23. June 2015

EAC extraction logfile from 17. September 2015, 14:32

TesseracT / Polaris

Used drive  : PIONEER BD-RW   BDR-208D   Adapter: 1  ID: 0

Read mode               : Secure
Utilize accurate stream : Yes
Defeat audio cache      : Yes
Make use of C2 pointers : No

Read offset correction                      : 667
Overread into Lead-In and Lead-Out          : No
Fill up missing offset samples with silence : Yes
Delete leading and trailing silent blocks   : No
Null samples used in CRC calculations       : Yes
Used interface                              : Native Win32 interface for Win NT & 2000
Gap handling                                : Appended to previous track

Used output format              : User Defined Encoder
Selected bitrate                : 1024 kBit/s
Quality                         : High
Add ID3 tag                     : No
Command line compressor         : C:\Program Files (x86)\Exact Audio Copy\FLAC 1.2.1\flac.exe
Additional command line options : -8 -V %source%

TOC of the extracted CD

     Track |   Start  |  Length  | Start sector | End sector
    ---------------------------------------------------------
        1  |  0:00.00 |  6:51.23 |         0    |    30847
        2  |  6:51.23 |  5:17.74 |     30848    |    54696
        3  | 12:09.22 |  4:25.03 |     54697    |    74574
        4  | 16:34.25 |  5:59.22 |     74575    |   101521
        5  | 22:33.47 |  5:33.64 |    101522    |   126560
        6  | 28:07.36 |  3:53.72 |    126561    |   144107
        7  | 32:01.33 |  3:34.50 |    144108    |   160207
        8  | 35:36.08 |  5:28.58 |    160208    |   184865
        9  | 41:04.66 |  5:40.00 |    184866    |   210365

Track  1

     Filename D:\FiH\TesseracT-Polaris-CD-FLAC-2015-FiH\01-TesseracT-Dystopia.wav

     Pre-gap length  0:00:02.00

     Peak level 97.9 %
     Extraction speed 4.8 X
     Track quality 100.0 %
     Test CRC 7BA6325B
     Copy CRC 7BA6325B
     Track not present in AccurateRip database
     Copy OK

Track  2

     Filename D:\FiH\TesseracT-Polaris-CD-FLAC-2015-FiH\02-TesseracT-Hexes.wav

     Peak level 98.2 %
     Extraction speed 5.4 X
     Track quality 100.0 %
     Test CRC 49B1F965
     Copy CRC 49B1F965
     Track not present in AccurateRip database
     Copy OK

Track  3

     Filename D:\FiH\TesseracT-Polaris-CD-FLAC-2015-FiH\03-TesseracT-Survival.wav

     Peak level 97.9 %
     Extraction speed 5.8 X
     Track quality 100.0 %
     Test CRC 9E874419
     Copy CRC 9E874419
     Track not present in AccurateRip database
     Copy OK

Track  4

     Filename D:\FiH\TesseracT-Polaris-CD-FLAC-2015-FiH\04-TesseracT-Tourniquet.wav

     Peak level 97.9 %
     Extraction speed 6.4 X
     Track quality 100.0 %
     Test CRC FFD905D7
     Copy CRC FFD905D7
     Track not present in AccurateRip database
     Copy OK

Track  5

     Filename D:\FiH\TesseracT-Polaris-CD-FLAC-2015-FiH\05-TesseracT-Utopia.wav

     Peak level 97.7 %
     Extraction speed 6.8 X
     Track quality 100.0 %
     Test CRC 2D6AC490
     Copy CRC 2D6AC490
     Track not present in AccurateRip database
     Copy OK

Track  6

     Filename D:\FiH\TesseracT-Polaris-CD-FLAC-2015-FiH\06-TesseracT-Phoenix.wav

     Peak level 98.2 %
     Extraction speed 6.8 X
     Track quality 100.0 %
     Test CRC 909272C4
     Copy CRC 909272C4
     Track not present in AccurateRip database
     Copy OK

Track  7

     Filename D:\FiH\TesseracT-Polaris-CD-FLAC-2015-FiH\07-TesseracT-Messenger.wav

     Peak level 98.1 %
     Extraction speed 6.9 X
     Track quality 100.0 %
     Test CRC 2F33300E
     Copy CRC 2F33300E
     Track not present in AccurateRip database
     Copy OK

Track  8

     Filename D:\FiH\TesseracT-Polaris-CD-FLAC-2015-FiH\08-TesseracT-Cages.wav

     Peak level 98.0 %
     Extraction speed 7.6 X
     Track quality 100.0 %
     Test CRC 396AC9FD
     Copy CRC 396AC9FD
     Track not present in AccurateRip database
     Copy OK

Track  9

     Filename D:\FiH\TesseracT-Polaris-CD-FLAC-2015-FiH\09-TesseracT-Seven_Names.wav

     Peak level 97.9 %
     Extraction speed 7.1 X
     Track quality 99.9 %
     Test CRC DC94AB71
     Copy CRC DC94AB71
     Track not present in AccurateRip database
     Copy OK

None of the tracks are present in the AccurateRip database

No errors occurred

End of status report

==== Log checksum E6752E5E531A17007C4E9DFFDA2AD6C1C863F1B4194250BA5833186697721F6D ====

Отчёт auCDtect Task manager:

Код:

-----------------------

DON'T MODIFY THIS FILE

-----------------------

PERFORMER: auCDtect Task Manager, ver. 1.6.0 RC1 build 1.6.0.1
Copyright (c) 2008-2010 y-soft. All rights reserved
http://y-soft.org

ANALYZER: auCDtect: CD records authenticity detector, version 0.8.2
Copyright (c) 2004 Oleg Berngardt. All rights reserved.
Copyright (c) 2004 Alexander Djourik. All rights reserved.

FILE: 09-tesseract-seven_names.flac
  Size: 30851922 Hash: 03F2693E94A21B781FACEE5A90B9971C Accuracy: -m0
  Conclusion: CDDA 100%
  Signature: 4E907BFABDF4ED0058BBEC504F0D7E246D2ADD5C
FILE: 08-tesseract-cages.flac
  Size: 35201108 Hash: F2DDA1EF9C8E854D554A0074B2ABA357 Accuracy: -m0
  Conclusion: CDDA 100%
  Signature: 6FAD288F10802C4ECD2F4A3FC64B9B71922E414E
FILE: 07-tesseract-messenger.flac
  Size: 27629364 Hash: 7AD9D333E5179BE30F53C58F25DAA9CE Accuracy: -m0
  Conclusion: CDDA 100%
  Signature: 83C3F077820AAB3822D9D953278BB16C058BF5E7
FILE: 06-tesseract-phoenix.flac
  Size: 27747884 Hash: 8578D4D5880EB509AF27204E72462A4D Accuracy: -m0
  Conclusion: CDDA 100%
  Signature: 3CC34939AC7BACAB8DFA411E91254BB7B7C0F0B8
FILE: 05-tesseract-utopia.flac
  Size: 38408914 Hash: C4E058900265DD2ECE9824F77543E45F Accuracy: -m0
  Conclusion: CDDA 100%
  Signature: CCC036FFA915FF064A4CFDD1288535D63E24088A
FILE: 04-tesseract-tourniquet.flac
  Size: 37998297 Hash: 4488A1D58B50B2572DD42781A39E2E97 Accuracy: -m0
  Conclusion: CDDA 100%
  Signature: 0BD459CB3B05F64A3189DE94FAB7A75457AC5E44
FILE: 03-tesseract-survival.flac
  Size: 31952593 Hash: C771A025294E39836E14547E88724255 Accuracy: -m0
  Conclusion: CDDA 100%
  Signature: E427E64B50CDD6293D8AD37D1EED6293ACB3BB5B
FILE: 02-tesseract-hexes.flac
  Size: 34495931 Hash: 10853ADF7D23659BBF7BF4BEE4A37747 Accuracy: -m0
  Conclusion: CDDA 100%
  Signature: 7F88AD1BD94A6EFB36B8B7CF0B8936C82BF5A294
FILE: 01-tesseract-dystopia.flac
  Size: 46526781 Hash: AF71E18ED23B722638BC822A9961CD33 Accuracy: -m0
  Conclusion: CDDA 100%
  Signature: 26616EFF3E9C3239A9EACFDE30D8F27CF2D473CF

Детали торрента:
Название:TesseracT - Polaris (2015) [FLAC|tracks+.cue]<Progressive Math Metal>
Дата добавления:19 Сен 2015 15:48:17
Размер:298 MB
Раздают:
Качают:0
Форум:Metal (Lossless)

All rights reserved © 2015-2018