TORRENTS45.XYZ

Скачать The Rolling Stones - From The Vault - Hampton Coliseum - Live in 1981 (2014) BDRip [H.264/720p-LQ]


The Rolling Stones - From The Vault - Hampton Coliseum - Live in 1981 (2014) BDRip [H.264/720p-LQ]
Производство: США | Eagle Rock Entertainment
Жанр: Rock
Год выпуска: 1981/2014

Режиссер: Hal Ashby & Tom Trbovich
Актеры: Mick Jagger (vocals, guitar), Keith Richards (guitars, vocals), Ronnie Wood (guitars, backing vocals), Bill Wyman (bass guitar), Charlie Watts (drums), Ian Stewart (piano), Ian McLagan (keyboards, backing vocals), Ernie Watts, Boby Keys (saxophone)

Описание:
Рекорд-компания Eagle Rock выпустила серии живых концертных записей из архива The Rolling Stones, получившей название «From The Vault». Первым релизом в ней стала запись выступления «роллингов» 1981 года в Хэмптоне, штат Вирджиния, «Hampton Coliseum — Live In 1981». Релиз The Rolling Stones «From The Vault – Hampton Coliseum – Live in 1981» (Eagle Rock) состоялся 3 ноября 2014.

Треклист:

01. Under My Thumb
02. When The Whip Comes Down
03. Let s Spend The Night Together
04. Shattered
05. Neighbours
06. Black Limousine
07. Just My Imagination
08. Twenty Flight Rock

Треклист:

09. Going To A Go Go
10. Let Me Go
11. Time Is On My Side
12. Beast Of Burden
13. Waiting On A Friend
14. Let It Bleed
15. You Can t Always Get What You Want
16. Band Introductions
17. Happy Birthday Keith
18. Little T & A
19. Tumbling Dice
20. She s So Cold
21. Hang Fire
22. Miss You
23. Honky Tonk Women
24. Brown Sugar
25. Start Me Up
26. Jumping Jack Flash
27. (I Can t Get No) Satisfaction
Продолжительность: 02:29:51
Качество видео: BDRip 720p-LQ

Контейнер: MKV
Битрейт видео: ~800kbps, (4:3), 944x720р, 29,970 fps, High Profile 4.1
Видеокодек: MPEG-4 AVC
Аудиокодек: AC3
Аудио: AC3 5.1, 640 kbps, 48 kHz

Mediainfo:

Формат : Matroska
Версия формата : Version 2
Размер файла : 1,51 Гбайт
Продолжительность : 2 ч. 29 м.
Общий поток : 1442 Кбит/сек
Дата кодирования : UTC 2015-09-13 06:26:08
Программа кодирования : mkvmerge v3.3.0 ('Language') built on Mar 24 2010 14:59:24
Библиотека кодирования : libebml v0.8.0 + libmatroska v0.9.0

Видео
Идентификатор : 1
Формат : AVC
Формат/Информация : Advanced Video Codec
Профиль формата : High@L4.1
Параметр CABAC формата : Да
Параметр ReFrames формата : 8 кадров
Идентификатор кодека : V_MPEG4/ISO/AVC
Продолжительность : 2 ч. 29 м.
Битрейт : 800 Кбит/сек
Ширина : 944 пикселя
Высота : 720 пикселей
Соотношение сторон : 4:3
Режим частоты кадров : Постоянный
Частота кадров : 29,970 кадров/сек
Цветовое пространство : YUV
Субдискретизация насыщенности : 4:2:0
Битовая глубина : 8 бит
Тип развёртки : Прогрессивная
Бит/(Пиксели*Кадры) : 0.039
Размер потока : 829 Мбайт (54%)
Библиотека кодирования : x264 core 92 r1510 33d382a
Настройки программы : cabac=1 / ref=8 / deblock=1:-2:-2 / analyse=0x3:0x133 / me=umh / subme=9 / psy=1 / psy_rd=1.00:0.10 / mixed_ref=1 / me_range=24 / chroma_me=1 / trellis=2 / 8x8dct=1 / cqm=0 / deadzone=21,11 / fast_pskip=0 / chroma_qp_offset=-3 / threads=12 / sliced_threads=0 / nr=0 / decimate=1 / interlaced=0 / constrained_intra=0 / bframes=4 / b_pyramid=2 / b_adapt=2 / b_bias=0 / direct=3 / wpredb=1 / wpredp=2 / keyint=250 / keyint_min=25 / scenecut=40 / intra_refresh=0 / rc_lookahead=50 / rc=2pass / mbtree=1 / bitrate=800 / ratetol=1.0 / qcomp=0.60 / qpmin=10 / qpmax=51 / qpstep=4 / cplxblur=20.0 / qblur=0.5 / ip_ratio=1.40 / aq=1:1.00
Default : Да
Forced : Нет

Аудио
Идентификатор : 2
Формат : AC-3
Формат/Информация : Audio Coding 3
Расширение режима : CM (complete main)
Параметр Endianness формата : Big
Идентификатор кодека : A_AC3
Продолжительность : 2 ч. 29 м.
Вид битрейта : Постоянный
Битрейт : 640 Кбит/сек
Каналы : 6 каналов
Расположение каналов : Front: L C R, Side: L R, LFE
Частота : 48,0 КГц
Метод сжатия : С потерями
Размер потока : 686 Мбайт (44%)
Default : Да
Forced : Нет
Скриншоты:


The Rolling Stones - From The Vault - Hampton Coliseum

Детали торрента:
Название:The Rolling Stones - From The Vault - Hampton Coliseum - Live in 1981 (2014) BDRip [H.264/720p-LQ]
Дата добавления:13 Сен 2015 09:46:25
Размер:1,51 GB
Раздают:1
Качают:0
Форум:Концерты

All rights reserved © 2015-2018