TORRENTS45.XYZ

Скачать Terry Gibbs - The Exciting Terry Gibbs Big Band + Swing Is Here! (1960/1961) /2011, Poll Winners Records/ [FLAC|tracks+.cue]<Big Band, Mainstream Jazz>


Terry Gibbs - The Exciting Terry Gibbs Big Band + Swing Is Here! (1960/1961) /2011, Poll Winners Records/
Год: 2011
Год записи: 1960/1961
Жанр: Big Band, Mainstream Jazz
Продолжительность: 01:15:11

Кодек: FLAC (tracks+.cue)
Битрейт: Lossless
Источник (релизер): LolaMontes

Издатель (лейбл): Poll Winners Records
Номер по каталогу: PWR 27261
Страна-производитель диска: EU
Наличие сканов в содержимом раздачи: да

Треклист:

01. Day In, Day Out [03:09]
02. Summit Blues [03:51]
03. Limerick Waltz [02:52]
04. You Don't Know What Love Is [05:26]
05. Sweet Georgia Brown [03:00]
06. Nose Cone [02:57]
07. Too Close For Comfort [04:07]
08. Main Stem [04:38]
09. Ja-Da [04:41]
10. T And S [05:49]

Продолжение треклиста

11. The Song Is You [02:34]
12. It Might As Well Be Swing [03:14]
13. Dancing In The Dark [03:09]
14. Moonglow [02:45]
15. Bright Eyes [05:08]
16. The Fat Man [03:07]
17. My Reverie [03:01]
18. Softly, As In A Morning Sunrise [03:46]
19. Evil Eyes [05:22]
20. Back Bay Shuffle [02:45]

Отчёт ЕАС:

Код:

Exact Audio Copy V1.0 beta 4 from 7. December 2014

EAC extraction logfile from 1. September 2015, 18:18

Terry Gibbs / The Exciting Terry Gibbs Big Band + Swing Is Here!

Used drive  : HL-DT-STDVD+-RW GH82N   Adapter: 1  ID: 0

Read mode               : Secure
Utilize accurate stream : Yes
Defeat audio cache      : Yes
Make use of C2 pointers : No

Read offset correction                      : 667
Overread into Lead-In and Lead-Out          : No
Fill up missing offset samples with silence : Yes
Delete leading and trailing silent blocks   : No
Null samples used in CRC calculations       : Yes
Used interface                              : Native Win32 interface for Win NT & 2000
Gap handling                                : Appended to previous track

Used output format              : User Defined Encoder
Selected bitrate                : 1024 kBit/s
Quality                         : High
Add ID3 tag                     : No
Command line compressor         : C:\Program Files (x86)\Exact Audio Copy\FLAC\FLAC.EXE
Additional command line options : -6 -V -T "ARTIST=%artist%" -T "TITLE=%title%" -T "ALBUM=%albumtitle%" -T "DATE=%year%" -T "TRACKNUMBER=%tracknr%" -T "GENRE=%genre%" -T "COMMENT=%comment%" -T "BAND=%albuminterpret%" -T "ALBUMARTIST=%albuminterpret%" -T "COMPOSER=%composer%" %haslyrics%--tag-from-file=LYRICS="%lyricsfile%"%haslyrics% -T "DISCNUMBER=%cdnumber%" -T "TOTALDISCS=%totalcds%" -T "TOTALTRACKS=%numtracks%" %hascover%--picture="%coverfile%"%hascover% %source% -o %dest%

TOC of the extracted CD

     Track |   Start  |  Length  | Start sector | End sector
    ---------------------------------------------------------
        1  |  0:00.00 |  3:08.38 |         0    |    14137
        2  |  3:08.38 |  3:50.14 |     14138    |    31401
        3  |  6:58.52 |  2:51.52 |     31402    |    44278
        4  |  9:50.29 |  5:25.59 |     44279    |    68712
        5  | 15:16.13 |  2:59.21 |     68713    |    82158
        6  | 18:15.34 |  2:56.67 |     82159    |    95425
        7  | 21:12.26 |  4:06.49 |     95426    |   113924
        8  | 25:19.00 |  4:37.51 |    113925    |   134750
        9  | 29:56.51 |  4:40.02 |    134751    |   155752
       10  | 34:36.53 |  5:48.12 |    155753    |   181864
       11  | 40:24.65 |  2:33.04 |    181865    |   193343
       12  | 42:57.69 |  3:13.23 |    193344    |   207841
       13  | 46:11.17 |  3:08.48 |    207842    |   221989
       14  | 49:19.65 |  2:44.06 |    221990    |   234295
       15  | 52:03.71 |  5:07.04 |    234296    |   257324
       16  | 57:11.00 |  3:06.72 |    257325    |   271346
       17  | 60:17.72 |  3:00.21 |    271347    |   284867
       18  | 63:18.18 |  3:45.63 |    284868    |   301805
       19  | 67:04.06 |  5:21.72 |    301806    |   325952
       20  | 72:26.03 |  2:44.40 |    325953    |   338292

Track  1

     Filename C:\Rips\Terry Gibbs - The Exciting Terry Gibbs Big Band + Swing Is Here!\01  - Day In, Day Out.wav

     Pre-gap length  0:00:02.00

     Peak level 100.0 %
     Extraction speed 1.7 X
     Track quality 100.0 %
     Copy CRC ECFA45E6
     Accurately ripped (confidence 1)  [AF462EC6]  (AR v2)
     Copy OK

Track  2

     Filename C:\Rips\Terry Gibbs - The Exciting Terry Gibbs Big Band + Swing Is Here!\02  - Summit Blues.wav

     Peak level 100.0 %
     Extraction speed 2.0 X
     Track quality 100.0 %
     Copy CRC 6885FDDA
     Accurately ripped (confidence 1)  [BF5857C3]  (AR v2)
     Copy OK

Track  3

     Filename C:\Rips\Terry Gibbs - The Exciting Terry Gibbs Big Band + Swing Is Here!\03  - Limerick Waltz.wav

     Peak level 100.0 %
     Extraction speed 2.0 X
     Track quality 100.0 %
     Copy CRC 49E937F5
     Accurately ripped (confidence 1)  [8F698E1F]  (AR v2)
     Copy OK

Track  4

     Filename C:\Rips\Terry Gibbs - The Exciting Terry Gibbs Big Band + Swing Is Here!\04  - You Don't Know What Love Is.wav

     Peak level 100.0 %
     Extraction speed 2.4 X
     Track quality 100.0 %
     Copy CRC 024F11A7
     Accurately ripped (confidence 1)  [EB61A79D]  (AR v2)
     Copy OK

Track  5

     Filename C:\Rips\Terry Gibbs - The Exciting Terry Gibbs Big Band + Swing Is Here!\05  - Sweet Georgia Brown.wav

     Peak level 100.0 %
     Extraction speed 2.0 X
     Track quality 99.9 %
     Copy CRC D0C8A46D
     Accurately ripped (confidence 1)  [180AE987]  (AR v2)
     Copy OK

Track  6

     Filename C:\Rips\Terry Gibbs - The Exciting Terry Gibbs Big Band + Swing Is Here!\06  - Nose Cone.wav

     Peak level 100.0 %
     Extraction speed 2.4 X
     Track quality 100.0 %
     Copy CRC 5E155805
     Accurately ripped (confidence 1)  [6E43CB64]  (AR v2)
     Copy OK

Track  7

     Filename C:\Rips\Terry Gibbs - The Exciting Terry Gibbs Big Band + Swing Is Here!\07  - Too Close For Comfort.wav

     Peak level 100.0 %
     Extraction speed 2.3 X
     Track quality 99.9 %
     Copy CRC D8120546
     Accurately ripped (confidence 1)  [028B5396]  (AR v2)
     Copy OK

Track  8

     Filename C:\Rips\Terry Gibbs - The Exciting Terry Gibbs Big Band + Swing Is Here!\08  - Main Stem.wav

     Peak level 100.0 %
     Extraction speed 2.9 X
     Track quality 100.0 %
     Copy CRC CE0525BA
     Accurately ripped (confidence 1)  [0E0BA478]  (AR v2)
     Copy OK

Track  9

     Filename C:\Rips\Terry Gibbs - The Exciting Terry Gibbs Big Band + Swing Is Here!\09  - Ja-Da.wav

     Peak level 100.0 %
     Extraction speed 3.0 X
     Track quality 100.0 %
     Copy CRC E6026D49
     Accurately ripped (confidence 1)  [5AC8E368]  (AR v2)
     Copy OK

Track 10

     Filename C:\Rips\Terry Gibbs - The Exciting Terry Gibbs Big Band + Swing Is Here!\10  - T And S.wav

     Peak level 100.0 %
     Extraction speed 3.2 X
     Track quality 100.0 %
     Copy CRC 499130F7
     Accurately ripped (confidence 1)  [01CCC352]  (AR v2)
     Copy OK

Track 11

     Filename C:\Rips\Terry Gibbs - The Exciting Terry Gibbs Big Band + Swing Is Here!\11  - The Song Is You.wav

     Peak level 98.8 %
     Extraction speed 2.4 X
     Track quality 99.9 %
     Copy CRC 274CBA99
     Track not present in AccurateRip database
     Copy OK

Track 12

     Filename C:\Rips\Terry Gibbs - The Exciting Terry Gibbs Big Band + Swing Is Here!\12  - It Might As Well Be Swing.wav

     Peak level 98.8 %
     Extraction speed 3.2 X
     Track quality 100.0 %
     Copy CRC 9C4DF76A
     Track not present in AccurateRip database
     Copy OK

Track 13

     Filename C:\Rips\Terry Gibbs - The Exciting Terry Gibbs Big Band + Swing Is Here!\13  - Dancing In The Dark.wav

     Peak level 98.8 %
     Extraction speed 3.3 X
     Track quality 100.0 %
     Copy CRC ECDC2FAB
     Track not present in AccurateRip database
     Copy OK

Track 14

     Filename C:\Rips\Terry Gibbs - The Exciting Terry Gibbs Big Band + Swing Is Here!\14  - Moonglow.wav

     Peak level 98.8 %
     Extraction speed 3.2 X
     Track quality 100.0 %
     Copy CRC B5FCE38E
     Track not present in AccurateRip database
     Copy OK

Track 15

     Filename C:\Rips\Terry Gibbs - The Exciting Terry Gibbs Big Band + Swing Is Here!\15  - Bright Eyes.wav

     Peak level 98.8 %
     Extraction speed 3.2 X
     Track quality 99.9 %
     Copy CRC CC5F183B
     Track not present in AccurateRip database
     Copy OK

Track 16

     Filename C:\Rips\Terry Gibbs - The Exciting Terry Gibbs Big Band + Swing Is Here!\16  - The Fat Man.wav

     Peak level 98.8 %
     Extraction speed 3.5 X
     Track quality 100.0 %
     Copy CRC 7C08FF9C
     Track not present in AccurateRip database
     Copy OK

Track 17

     Filename C:\Rips\Terry Gibbs - The Exciting Terry Gibbs Big Band + Swing Is Here!\17  - My Reverie.wav

     Peak level 98.8 %
     Extraction speed 2.9 X
     Track quality 99.9 %
     Copy CRC 9C3DCA1F
     Track not present in AccurateRip database
     Copy OK

Track 18

     Filename C:\Rips\Terry Gibbs - The Exciting Terry Gibbs Big Band + Swing Is Here!\18  - Softly, As In A Morning Sunrise.wav

     Peak level 98.8 %
     Extraction speed 3.8 X
     Track quality 100.0 %
     Copy CRC 4E43883B
     Track not present in AccurateRip database
     Copy OK

Track 19

     Filename C:\Rips\Terry Gibbs - The Exciting Terry Gibbs Big Band + Swing Is Here!\19  - Evil Eyes.wav

     Peak level 98.8 %
     Extraction speed 3.9 X
     Track quality 100.0 %
     Copy CRC 55403BB8
     Track not present in AccurateRip database
     Copy OK

Track 20

     Filename C:\Rips\Terry Gibbs - The Exciting Terry Gibbs Big Band + Swing Is Here!\20  - Back Bay Shuffle.wav

     Peak level 98.8 %
     Extraction speed 3.7 X
     Track quality 100.0 %
     Copy CRC C944465C
     Track not present in AccurateRip database
     Copy OK

10 track(s) accurately ripped
10 track(s) not present in the AccurateRip database

Some tracks could not be verified as accurate

No errors occurred

End of status report

---- CUETools DB Plugin V2.1.4

[CTDB TOCID: k1BBpdVoMvbEZx2KTugMl1UiKiE-] disk not present in database
Submit result: k1BBpdVoMvbEZx2KTugMl1UiKiE- has been uploaded

==== Log checksum 16362CA9AAA5B9F3B9720FF66EFABA32B62897BE49681917381F22D2F75D63A2 ====

Отчёт auCDtect Task manager:

Код:

-----------------------

DON'T MODIFY THIS FILE

-----------------------

PERFORMER: auCDtect Task Manager, ver. 1.6.0 RC1 build 1.6.0.1
Copyright (c) 2008-2010 y-soft. All rights reserved
http://y-soft.org

ANALYZER: auCDtect: CD records authenticity detector, version 0.8.2
Copyright (c) 2004 Oleg Berngardt. All rights reserved.
Copyright (c) 2004 Alexander Djourik. All rights reserved.

FILE: 20  - Back Bay Shuffle.flac
  Size: 21887406 Hash: CB5F1B4092E08A8F1116F0CCBB36CC20 Accuracy: -m0
  Conclusion: CDDA 100%
  Signature: 94BC6E668F86BA9604F0A1E378672948B4454BF8
FILE: 19  - Evil Eyes.flac
  Size: 38810864 Hash: 7275D11D09874A4F29EE050EF0BFF13E Accuracy: -m0
  Conclusion: CDDA 99%
  Signature: 2E5A83ECBDFC8A4016129FD3596493BDCD087C2D
FILE: 18  - Softly, As In A Morning Sunrise.flac
  Size: 25681479 Hash: FC383D5B3D68A6AB62C1C91045619488 Accuracy: -m0
  Conclusion: CDDA 100%
  Signature: FF95C2B53459014E471666D2D26073271153EC9E
FILE: 17  - My Reverie.flac
  Size: 21370595 Hash: 2927914665F21FA0681665815D3EC8CE Accuracy: -m0
  Conclusion: CDDA 100%
  Signature: 76205F037579958C0964BDEBAECF563D4716EA87
FILE: 16  - The Fat Man.flac
  Size: 21790454 Hash: 1E7D50F915EBDBDD14E7A568E99ED02C Accuracy: -m0
  Conclusion: CDDA 100%
  Signature: 563D8B70E568B398D78EDD7F626ED3C66D39DC31
FILE: 15  - Bright Eyes.flac
  Size: 36060415 Hash: 435459803B04743F258DC0D7E7AD1457 Accuracy: -m0
  Conclusion: CDDA 100%
  Signature: 01582EAD42DA958D73F80C270DC540694ABC94CA
FILE: 14  - Moonglow.flac
  Size: 18880596 Hash: E3194691CE4F9B5674D484EB3016EC97 Accuracy: -m0
  Conclusion: CDDA 99%
  Signature: F7AE43783940ECD71A4DD2D4B787B92CCB03F67B
FILE: 13  - Dancing In The Dark.flac
  Size: 22253284 Hash: 8368B73E18FCB049FAE34CD6B038D188 Accuracy: -m0
  Conclusion: CDDA 100%
  Signature: 88FDA223A0616E44B09B96C257664A1BC6510AA2
FILE: 12  - It Might As Well Be Swing.flac
  Size: 21712873 Hash: 5BAB9AABB5D731FCB1C4C8F63B0BFB7C Accuracy: -m0
  Conclusion: CDDA 100%
  Signature: 676B397FF648C622B0561E4863EC119E5162FEB6
FILE: 11  - The Song Is You.flac
  Size: 19590676 Hash: 34B0BE25210F08A7350B8CE8BC81A4F5 Accuracy: -m0
  Conclusion: CDDA 100%
  Signature: 4BEC6B2714215E50D91047B7E652404228E9ADF8
FILE: 10  - T And S.flac
  Size: 42427806 Hash: CF9C385FD1E6931D3FAD1A98E2B8AEF7 Accuracy: -m0
  Conclusion: CDDA 100%
  Signature: BED145957F96173B078E19C5A19E5E2356CEB5F4
FILE: 09  - Ja-Da.flac
  Size: 33066768 Hash: 9D8B7F440B6214773F6C85AFC8896834 Accuracy: -m0
  Conclusion: CDDA 100%
  Signature: 07DADD3F919CC7E3B74CB31FBE5FF044A8F72CE0
FILE: 08  - Main Stem.flac
  Size: 34151422 Hash: 0E891074A8DD1976148E500805000BE5 Accuracy: -m0
  Conclusion: CDDA 100%
  Signature: C8E021EBDF8C52638156A6403F86CBF47A04F78E
FILE: 07  - Too Close For Comfort.flac
  Size: 29857218 Hash: EB636D12351AF35825F25C43563F7C34 Accuracy: -m0
  Conclusion: CDDA 100%
  Signature: 6EF68D5F47DD678CBABAA4EDD8747A6F43568E42
FILE: 06  - Nose Cone.flac
  Size: 22307684 Hash: 31D64CD313F7782C69E2896EBABEDEA9 Accuracy: -m0
  Conclusion: CDDA 100%
  Signature: 5DECF331BF4188D39D668269BEF79A3D134B2B71
FILE: 05  - Sweet Georgia Brown.flac
  Size: 21914821 Hash: B225A183FD6A84CE99F0212F83C13EEC Accuracy: -m0
  Conclusion: CDDA 99%
  Signature: E0467AE699404914F0D65278A42E1765A3673806
FILE: 04  - You Don't Know What Love Is.flac
  Size: 36133028 Hash: 91A3A847FCFD024E69FC849BA70B124C Accuracy: -m0
  Conclusion: CDDA 100%
  Signature: 482A3FE43A80B75FD7A7FC2696C0ED473992E07B
FILE: 03  - Limerick Waltz.flac
  Size: 21189199 Hash: 8144EBA76E14E175D9EB8E6CE6DF6D2D Accuracy: -m0
  Conclusion: CDDA 100%
  Signature: AEBC89F985FB20CD24EFDA038B15F27906B4BFED
FILE: 02  - Summit Blues.flac
  Size: 27419781 Hash: 1415C473672F2F03A87A3A15498E3F04 Accuracy: -m0
  Conclusion: CDDA 100%
  Signature: 3A4FA4D3D06817DD835AD3D1BB62364B55FF382D
FILE: 01  - Day In, Day Out.flac
  Size: 23849263 Hash: F02488A088FEBE6013A9A8F2F887F46E Accuracy: -m0
  Conclusion: CDDA 100%
  Signature: 21FE46A01C92B41EB849621C402FFD72EC9A7A1D

Содержание индексной карты (.CUE)

Код:

REM GENRE Jazz
REM DATE 2011
REM DISCID 26119E14
REM COMMENT "ExactAudioCopy v1.0b4"
PERFORMER "Terry Gibbs"
TITLE "The Exciting Terry Gibbs Big Band + Swing Is Here!"
FILE "01  - Day In, Day Out.wav" WAVE
  TRACK 01 AUDIO
    TITLE "Day In, Day Out"
    PERFORMER "Terry Gibbs"
    INDEX 01 00:00:00
FILE "02  - Summit Blues.wav" WAVE
  TRACK 02 AUDIO
    TITLE "Summit Blues"
    PERFORMER "Terry Gibbs"
    INDEX 01 00:00:00
FILE "03  - Limerick Waltz.wav" WAVE
  TRACK 03 AUDIO
    TITLE "Limerick Waltz"
    PERFORMER "Terry Gibbs"
    INDEX 01 00:00:00
FILE "04  - You Don't Know What Love Is.wav" WAVE
  TRACK 04 AUDIO
    TITLE "You Don't Know What Love Is"
    PERFORMER "Terry Gibbs"
    INDEX 01 00:00:00
FILE "05  - Sweet Georgia Brown.wav" WAVE
  TRACK 05 AUDIO
    TITLE "Sweet Georgia Brown"
    PERFORMER "Terry Gibbs"
    INDEX 01 00:00:00
FILE "06  - Nose Cone.wav" WAVE
  TRACK 06 AUDIO
    TITLE "Nose Cone"
    PERFORMER "Terry Gibbs"
    INDEX 01 00:00:00
FILE "07  - Too Close For Comfort.wav" WAVE
  TRACK 07 AUDIO
    TITLE "Too Close For Comfort"
    PERFORMER "Terry Gibbs"
    INDEX 01 00:00:00
FILE "08  - Main Stem.wav" WAVE
  TRACK 08 AUDIO
    TITLE "Main Stem"
    PERFORMER "Terry Gibbs"
    INDEX 01 00:00:00
FILE "09  - Ja-Da.wav" WAVE
  TRACK 09 AUDIO
    TITLE "Ja-Da"
    PERFORMER "Terry Gibbs"
    INDEX 01 00:00:00
FILE "10  - T And S.wav" WAVE
  TRACK 10 AUDIO
    TITLE "T And S"
    PERFORMER "Terry Gibbs"
    INDEX 01 00:00:00
FILE "11  - The Song Is You.wav" WAVE
  TRACK 11 AUDIO
    TITLE "The Song Is You"
    PERFORMER "Terry Gibbs"
    INDEX 01 00:00:00
FILE "12  - It Might As Well Be Swing.wav" WAVE
  TRACK 12 AUDIO
    TITLE "It Might As Well Be Swing"
    PERFORMER "Terry Gibbs"
    INDEX 01 00:00:00
FILE "13  - Dancing In The Dark.wav" WAVE
  TRACK 13 AUDIO
    TITLE "Dancing In The Dark"
    PERFORMER "Terry Gibbs"
    INDEX 01 00:00:00
FILE "14  - Moonglow.wav" WAVE
  TRACK 14 AUDIO
    TITLE "Moonglow"
    PERFORMER "Terry Gibbs"
    INDEX 01 00:00:00
FILE "15  - Bright Eyes.wav" WAVE
  TRACK 15 AUDIO
    TITLE "Bright Eyes"
    PERFORMER "Terry Gibbs"
    INDEX 01 00:00:00
FILE "16  - The Fat Man.wav" WAVE
  TRACK 16 AUDIO
    TITLE "The Fat Man"
    PERFORMER "Terry Gibbs"
    INDEX 01 00:00:00
FILE "17  - My Reverie.wav" WAVE
  TRACK 17 AUDIO
    TITLE "My Reverie"
    PERFORMER "Terry Gibbs"
    INDEX 01 00:00:00
FILE "18  - Softly, As In A Morning Sunrise.wav" WAVE
  TRACK 18 AUDIO
    TITLE "Softly, As In A Morning Sunrise"
    PERFORMER "Terry Gibbs"
    INDEX 01 00:00:00
FILE "19  - Evil Eyes.wav" WAVE
  TRACK 19 AUDIO
    TITLE "Evil Eyes"
    PERFORMER "Terry Gibbs"
    INDEX 01 00:00:00
FILE "20  - Back Bay Shuffle.wav" WAVE
  TRACK 20 AUDIO
    TITLE "Back Bay Shuffle"
    PERFORMER "Terry Gibbs"
    INDEX 01 00:00:00

Состав

THE EXCITING TERRY GIBBS BIG BAND

01. Day In, Day Out [3:08]
02. Summit Blues [3:50]
03. Limerick Waltz [2:51]
04. You Don't Know What Love Is [5:25]
05. Sweet Georgia Brown [2:59]
06. Nose Cone [2:56]
07. Too Close For Comfort [4:06]
08. Main Stem [4:37]
09. Ja-Da [4:40]
10. T And S [5:48]

Al Porcino, Ray Triscari, Conte Candoli, Stu Williamson, Frank Huggins (tp), Frank Rosolino, Vern Filey, Bob Edmondson (tb), Joe Maini, Charlie Kennedy (as), Richie Kamuca, Bill Perkins (ts), Jack Nimitz (bar), Terry Gibbs (vib), Pat Moran (p), Buddy Clark (b), Mel Lewis (d), Bill Holman, Shorty Rogers, Al Cohn, Manny Albam (arr); Live at the Summit Club, Hollywood, January 20-22, 1961

SWING IS HERE!

11. The Song Is You [2:33]
12. It Might As Well Be Swing [3:13]
13. Dancing In The Dark [3:08]
14. Moonglow [2:44]
15. Bright Eyes [5:07]
16. The Fat Man [3:06]
17. My Reverie [3:00]
18. Softly, As In A Morning Sunrise [3:45]
19. Evil Eyes [5:21]
20. Back Bay Shuffle [2:44]

Al Porcino, Ray Triscari, Conte Candoli, Stu Williamson, Joe Audino (tp), Frank Rosolino, Bobby Pring, Bob Edmondson, Tom Shepard (tb), Joe Maini, Charlie Kennedy (as), Med Flory, Bill Perkins (ts), Jack Schwartz (bar), Terry Gibbs (vib), Lou Levey (p), Buddy Clark (b), Mel Lewis (d); Los Angeles, February 23-24, 1960
Детали торрента:
Название:Terry Gibbs - The Exciting Terry Gibbs Big Band + Swing Is Here! (1960/1961) /2011, Poll Winners Records/ [FLAC|tracks+.cue]<Big Band, Mainstream Jazz>
Дата добавления:03 Сен 2015 14:13:54
Размер:585 MB
Раздают:2
Качают:0
Форум:Jazz (Lossless)

All rights reserved © 2015-2018