TORRENTS45.XYZ

Скачать Geekbrains | Java. Уровень 1 Базовый курс (2015) PCRec [H.264/720p-LQ]


Geekbrains | Java. Уровень 1 Базовый курс (2015) PCRec [H.264/720p-LQ]
Автор (режиссер): Geekbrains
Жанр: Программирование, Java

Описание:
Курс предназначен для тех, кто хотел бы освоить современный язык программирования, являющийся на данный момент наиболее популярным языком программирования в мире. Особенность курса в том, что помимо теории ученики разрабатывают с нуля под руководством своего учителя полноценную игру на Java. Таким образом по окончании курса ученик получает практический навык разработки собственной программы.

На курсе ученики изучают и получают практический опыт применения сложных объектно-ориентированных концепций, характерных именно для языка Java: интерфейсы, абстрактные классы, анонимные внутренние классы и др. Делают первые шаги в проектировании.

Для эффективного прохождения курса необходимо иметь базовый опыт в программировании на любом языке программирования. Тем, кто начинает с абсолютного нуля, настоятельно рекомендуется пройти бесплатный курс "Основы программирования", чтобы выучить базовые конструкции (переменные, условия, функции, циклы, массивы), свойственные любому языку программирования, а так же для лучшего усвоения материала рекомендуется пройти курс для новичков: "Java. Уровень 0".

Чему Вы научитесь


  • Начать мыслить в терминах Объектно-Ориентированного Программирования
  • Компилировать и запускать Java-приложения
  • Уметь отлаживать Java-программы
  • Познакомитесь со средами разработки Eclipse, Idea
  • Разработаете приложение-игру "Морской бой"
  • С нуля написание программы "Сетевой чат"
  • Написание программы "simple Web-server"
  • На 8ом уроке проработаете технические вопросы с собеседований на должность младшего java-разработчика
  • Проработаете логические задачки, которые задают на собеседованиях в IT компаниях

Программа курса

Урок 1. Базовые понятия
Обзор курса, Введение в платформу Java, Настройка среды, Простейшая программа Hello world в блокноте, Запуск и выполнение, Среды разработки(IDE), Знакомство со средой разработки Eclipse, Idea, Hello world в среде Eclipse, Idea

Урок 2. Типы данных
Примитивные типы данных, Объявления переменных и их инициализация, Константы, Стек,куча и где хранятся данные в Java, Преобразования типов в Java, Основные операторы в языке Java: арифметические, логические, битовые, строковые, Работа с символами и строками, Вывод результатов работы программы на консоль

Урок 3. Управление потоком выполнения и циклы
Основы процедурного программирования, Ветвления, Циклы, Проектирование методов, Конструкторы, Хорошие и плохие названия, Параметры методов, Перегрузка методов, Рекурсия

Урок 4. Введение в ООП
Классы и объекты, Абстракция, Инкапсуляция, Наследование, Полиморфизм, Модификаторы доступа

Урок 5. Продвинутое ООП
Принципы проектирования и основы языка UML, Диаграммы классов, Абстрактные классы, Интерфейсы клонирования, Множественное наследование в Java, Программирование в соответствии с интерфейсом, а не реализацией

Урок 6. Collеction Framework
Виды контейнеров в Java: List, Map,Set, Основные реализации контейнеров, Основные приемы использования контейнеров, Проход по элементам коллекции, шаблон проектирования Iterator, Сравнение элементов коллекции, Сортировка элементов коллекции

Урок 7. Исключения
Концепция обработки исключений, Сравнение традиционного механизма обработки ошибок с механизмом, обработки исключений, Блок try-catch-finally, Типы исключений, Стандартные исключения в Java и их роль, Выброс исключения из метода

Урок 8. Написание программы "Сетевой чат"
Основы работы с библиотекой Swing, Основы работы с файловой системой в Java, Написание игры "Морской бой" с нуля - в течении 7и уроков, Написание программы "Сетевой чат", Написание программы "simple Web-server"
Продолжительность: 26:04:28
Качество видео: PCRec

Видео: AVC/H.264, 1280x720, ~58.9 Kbps
Аудио: AAC, 2 ch, 64.0 Kbps

Mediainfo:

Код:

D:\Раздачи\Geekbrains_Java_1\Урок 1. Базовые понятия.mp4
   General
      Complete name : D:\Раздачи\Geekbrains_Java_1\Урок 1. Базовые понятия.mp4
      Format : MPEG-4
      Format profile : Base Media
      Codec ID : isom
      File size : 180 MiB
      Duration : 3h 14mn
      Overall bit rate : 130 Kbps
      Performer : "Recording #836047"
      Writing application : Lavf54.29.104
   Video #1
      ID : 1
      Format : AVC
      Format/Info : Advanced Video Codec
      Format profile : Main@L3.1
      Format settings, CABAC : Yes
      Format settings, ReFrames : 4 frames
      Codec ID : avc1
      Codec ID/Info : Advanced Video Coding
      Duration : 3h 14mn
      Bit rate : 58.9 Kbps
      Width : 1 280 pixels
      Height : 720 pixels
      Display aspect ratio : 16:9
      Frame rate mode : Variable
      Frame rate : 15.000 fps
      Minimum frame rate : 14.925 fps
      Maximum frame rate : 15.152 fps
      Color space : YUV
      Chroma subsampling : 4:2:0
      Bit depth : 8 bits
      Scan type : Progressive
      Bits/(Pixel*Frame) : 0.004
      Stream size : 81.7 MiB (45%)
      Writing library : x264 core 132
      Encoding settings : cabac=1 / ref=1 / deblock=1:0:0 / analyse=0x1:0x111 / me=hex / subme=2 / psy=1 / psy_rd=1.00:0.00 / mixed_ref=0 / me_range=16 / chroma_me=1 / trellis=0 / 8x8dct=0 / cqm=0 / deadzone=21,11 / fast_pskip=1 / chroma_qp_offset=0 / threads=4 / lookahead_threads=1 / sliced_threads=0 / nr=0 / decimate=1 / interlaced=0 / bluray_compat=0 / constrained_intra=0 / bframes=3 / b_pyramid=2 / b_adapt=1 / b_bias=0 / direct=1 / weightb=1 / open_gop=0 / weightp=1 / keyint=250 / keyint_min=15 / scenecut=40 / intra_refresh=0 / rc_lookahead=10 / rc=crf / mbtree=1 / crf=26.0 / qcomp=0.60 / qpmin=0 / qpmax=69 / qpstep=4 / ip_ratio=1.40 / aq=1:1.00
   Audio #2
      ID : 2
      Format : AAC
      Format/Info : Advanced Audio Codec
      Format profile : LC
      Codec ID : 40
      Duration : 3h 14mn
      Bit rate mode : Constant
      Bit rate : 64.0 Kbps
      Channel(s) : 2 channels
      Channel positions : Front: L R
      Sampling rate : 44.1 KHz
      Compression mode : Lossy
      Stream size : 88.9 MiB (49%)
Скриншоты:


Детали торрента:
Название:Geekbrains | Java. Уровень 1 Базовый курс (2015) PCRec [H.264/720p-LQ]
Дата добавления:06 Авг 2015 12:28:57
Размер:2,47 GB
Раздают:18
Качают:0
Форум:Компьютеры

All rights reserved © 2015-2018