TORRENTS45.XYZ

Скачать Geekbrains | PHP. Уровень 2 Профессиональная веб-разработка (2015) PCRec [H.264/720p]


Geekbrains | PHP. Уровень 2 Профессиональная веб-разработка (2015) PCRec [H.264/720p]
Автор (режиссер): Geekbrains
Преподаватель: Наиль Максудов
Жанр: Программирование, PHP
Продолжительность: 20:01:08
Качество видео: PCRec
Видео: AVC/H.264, 1280x720, ~326 Kbps
Аудио: AAC, 2 ch, 64.0 Kbps

Описание:
Это самый полный профессиональный курс по освоению PHP на уровне мастера-виртуоза. Это для тех кто уже понимает что такое PHP, каковы мощь и потенциал этого языка.
Люди, завершившие курс, утверждают что один месяц обучения по данной программе можно сравнить с ГОДАМИ обучения по книгам или материалам из интернета!

Чему вы научитесь

  • Создавать сайты любой сложности
  • Грамотно организовывать архитектуру баз данных
  • Использовать архитектурный шаблон проектирования MVC
  • Защищать скрипты от SQL-инъекций и других вариантов взлома
  • Максимально использовать возможности Объектно-Ориентированного Программирования
  • Пользоваться шаблонизаторами
  • Использовать оптимальные шаблоны проектирования для решения поставленных задач
  • Применять возможности 5-ой версии языка PHP
  • Правильно организовывать процесс разработки от начала до конца
  • Иметь практический опыт реализации основных современных функциональных решений: авторизация, каталог, галерея, блог, личный кабинет, лента новостей и т.п.
  • И многое другое..

Программа курса

Урок 1. Работа с базой данных
БД и СУБД, Реляционные базы данных, Нормальные формы, Типы связей, Организация связей, между сущностями, Язык SQL, SQL: соединение таблиц с помощью JOIN, Работа с MySQL средствами PHP

Урок 2. Архитектура MVC
Архитектура программы, Структура программы, Что такое хороший код, Архитектура MVC, Реализация MVC в PHP

Урок 3. Базовый шаблон
Базовый шаблон, Вложенные шаблоны, Трудности при работе со вложенными шаблонами, Буферизация в PHP, Универсальный метод шаблонизации

Урок 4. Объектно-ориентированное программирование
Класс и объект, Свойства и методы, Конструктор класса, Наследование, Полиморфизм, Инкапсуляция, Модификаторы доступа, Статические свойства и методы, Константы классов, Абстрактные классы и методы, Интерфейсы

Урок 5. MVC и ООП
Перегрузка свойств и методов класса, Модель, Представление, Контроллер, Точка входа, Иерархия контроллеров, Цикл обработки запроса, Автозагрузка классов

Урок 6. Создание класса модели. Драйвер БД
Преобразование модели от процедурного подхода к ООП, Статический класс, Шаблон проектирования "Одиночка", Драйвер работы с БД, Способы подключения классов контроллеров и модели, Выбор способов автозагрузки, Как правильно называть классы

Урок 7. Работа с пользователями. Авторизация и разделение прав доступа
Пользователь, Сессия, Привилегия, Роль, Механизм авторизации, Механизм контроля доступа, Гибкая схема разделения полномочий, Сокрытие страниц сайта, Особенности протокола HTTP, Шифрование паролей, md5 Генерация случайных строковых последовательностей, Схема БД для реализации всего механизма, Создание законченного программного модуля, реализующего весь механизм

Урок 8. Мини-Фреймворк для создания сайтов
ЧПУ, RewriteEngine в htaccess, Готовое решение для создания сайта (пакет-сборка и правила расширения)

Mediainfo:

Код:

D:\Раздачи\Geekbrains_PHP2\2. Архитиктура MVC\Урок 2.mp4
   General
      Complete name : D:\Раздачи\Geekbrains_PHP2\2. Архитиктура MVC\Урок 2.mp4
      Format : MPEG-4
      Format profile : Base Media
      Codec ID : isom
      File size : 400 MiB
      Duration : 2h 20mn
      Overall bit rate : 397 Kbps
      Writing application : Lavf54.29.104
   Video #1
      ID : 1
      Format : AVC
      Format/Info : Advanced Video Codec
      Format profile : High@L3.1
      Format settings, CABAC : Yes
      Format settings, ReFrames : 4 frames
      Codec ID : avc1
      Codec ID/Info : Advanced Video Coding
      Duration : 2h 20mn
      Bit rate : 326 Kbps
      Nominal bit rate : 384 Kbps
      Width : 1 280 pixels
      Height : 720 pixels
      Display aspect ratio : 16:9
      Frame rate mode : Variable
      Frame rate : 15.000 fps
      Minimum frame rate : 14.925 fps
      Maximum frame rate : 15.152 fps
      Color space : YUV
      Chroma subsampling : 4:2:0
      Bit depth : 8 bits
      Scan type : Progressive
      Bits/(Pixel*Frame) : 0.024
      Stream size : 328 MiB (82%)
      Writing library : x264 core 132
      Encoding settings : cabac=1 / ref=1 / deblock=1:0:0 / analyse=0x3:0x113 / me=hex / subme=2 / psy=1 / psy_rd=1.00:0.00 / mixed_ref=0 / me_range=16 / chroma_me=1 / trellis=0 / 8x8dct=1 / cqm=0 / deadzone=21,11 / fast_pskip=1 / chroma_qp_offset=0 / threads=4 / lookahead_threads=1 / sliced_threads=0 / nr=0 / decimate=1 / interlaced=0 / bluray_compat=0 / constrained_intra=0 / bframes=3 / b_pyramid=2 / b_adapt=1 / b_bias=0 / direct=1 / weightb=1 / open_gop=0 / weightp=1 / keyint=30 / keyint_min=3 / scenecut=40 / intra_refresh=0 / rc_lookahead=10 / rc=cbr / mbtree=1 / bitrate=384 / ratetol=1.0 / qcomp=0.60 / qpmin=0 / qpmax=69 / qpstep=4 / vbv_maxrate=384 / vbv_bufsize=512 / nal_hrd=none / ip_ratio=1.40 / aq=1:1.00
   Audio #2
      ID : 2
      Format : AAC
      Format/Info : Advanced Audio Codec
      Format profile : LC
      Codec ID : 40
      Duration : 2h 20mn
      Bit rate mode : Constant
      Bit rate : 64.0 Kbps
      Channel(s) : 2 channels
      Channel positions : Front: L R
      Sampling rate : 44.1 KHz
      Compression mode : Lossy
      Stream size : 64.5 MiB (16%)
Скриншоты:


Детали торрента:
Название:Geekbrains | PHP. Уровень 2 Профессиональная веб-разработка (2015) PCRec [H.264/720p]
Дата добавления:31 Июл 2015 00:11:48
Размер:3,13 GB
Раздают:5
Качают:1
Форум:Компьютеры

All rights reserved © 2015-2019