TORRENTS45.XYZ

Скачать Команда 33 (1987) DVD5


Команда 33 (1987) DVD5
Производство: СССР / Свердловская киностудия
Жанр: Драма, Комедия

Режиссер: Николай Гусаров
Актеры: Юрий Назаров, Александр Рахленко, Алексей Рождественский, Геннадий Сидоров, Сергей Погожин, Валерий Немешаев, Владимир Белоусов (II), Милена Тонтегоде, Сергей Тезов, Сергей Созинов, Валерий Храмцов, Виктор Григорюк, Александр Новиков (II), Юрий Алексеев, Олег Мокшанцев, Ольга Беляева, Юлия Джербинова, Любовь Теплова, Александр Мякушко, Софья Тиунова, Александр Коданев, Татьяна Агрызкова, Евгений Каплун, Владимир Белоусов, Владимир Кадочников

Описание:
По мотивам повести Альберта Лиханова "Воинский эшелон". Воинское формирование призывников, получившее порядковый номер 33, отправляется к месту своей будущей службы на Дальний Восток. Все они, как им и полагается быть, разные. И каждый, расставаясь со своими привычками, войдет в армейский ритм жизни и будет готов выполнить свой воинский долг. А пока им предстоит дальняя дорога и много событий - комичных, грустных и трогательных...


Возраст: 16+ (зрителям, достигшим 16 лет.)

Продолжительность: 01:19:36
Качество видео: DVD5
Видео: MPEG-2, 720x576@768х576, 6511 Kbps
Аудио: AC3, 2 ch, 192 kbps, CBR
Дополнительно: Бонусы нет

MediaInfo

Код:
Общее
Полное имя                               : \Команда 33\VIDEO_TS\VTS_01_1.VOB
Формат                                   : MPEG-PS
Размер файла                             : 1024 Мбайт
Продолжительность                        : 20 м.
Режим общего битрейта                    : Переменный
Общий поток                              : 6839 Кбит/сек

Видео
Идентификатор                            : 224 (0xE0)
Формат                                   : MPEG Video
Версия формата                           : Version 2
Профиль формата                          : Main@Main
Параметр BVOP формата                    : Да
Параметр матрицы формата                 : Выборочная
Продолжительность                        : 20 м.
Вид битрейта                             : Переменный
Битрейт                                  : 6511 Кбит/сек
Максимальный битрейт                     : 8000 Кбит/сек
Ширина                                   : 720 пикселей
Высота                                   : 576 пикселей
Соотношение сторон                       : 4:3
Частота кадров                           : 25,000 кадров/сек
Стандарт вещания                         : PAL
Цветовое пространство                    : YUV
Субдискретизация насыщенности            : 4:2:0
Битовая глубина                          : 8 бит
Метод сжатия                             : С потерями
Бит/(Пиксели*Кадры)                      : 0.628
Размер потока                            : 975 Мбайт (95%)

Аудио
Идентификатор                            : 189 (0xBD)-128 (0x80)
Формат                                   : AC-3
Формат/Информация                        : Audio Coding 3
Расширение режима                        : CM (complete main)
Параметр Endianness формата              : Big
Режим смешивания                         : DVD-Video
Продолжительность                        : 20 м.
Вид битрейта                             : Постоянный
Битрейт                                  : 192 Кбит/сек
Каналы                                   : 2 канала
Расположение каналов                     : Front: L R
Частота                                  : 48,0 КГц
Битовая глубина                          : 16 бит
Метод сжатия                             : С потерями
Задержка видео                           : -50 мс.
Размер потока                            : 28,7 Мбайт (3%)

Меню

DVDinfo:

Код:

Title: Команда 33
Size: 3.77 Gb ( 3 955 830,00 KBytes ) - DVD-5
Enabled regions: 1, 2, 3, 4, 5, 6, 7, 8

VTS_01 :
  Play Length: 00:00:23+01:19:13
  Video: PAL 4:3 (720x576) VBR
  Audio:
      Russian, AC3, 2/0 (L,R) ch, 192 kbps, Delay -49 mSec

* Menus Information *

VIDEO_TS Menu
Video:
      NTSC 4:3 (720x480) VBR
      Auto Pan&Scan, Auto Letterboxed
Language Unit :

VTS_01 Menu
Video:
      PAL 4:3 (720x576) VBR
Russian Language Unit :
      Root Menu
      Chapter (PTT) Menu

Дополнительная информация:

Ошибки в фильме
В начале фильма военком называет призывника Ямпольского, Игорем, тогда когда в поезде призывник Алексей играющий на гармошке, в частушке называет Ямпольского Олегом.

Рецензия, отзыв:

. будем резать тупыми ножницами..

Поезд с призывниками едет на Дальний Восток. У каждого в этом поезде своя история: смешная, трагическая, романтическая. Герои этих историй — типичные пацаны 90-х. Еще немного и эти ребята станут солдатами, а пока поезд идет, есть время попрощаться со своим детством и исправить то, что не успел сделать на «гражданке».

Фильм положительный, с хорошим юмором и «приколами», которые запоминаются надолго. Для меня и моих друзей этот фильм был очень актуальным, поэтому цитировали его мы достаточно долго..

Может и не так страшна армия, как ее «малюют»?

6 из 10
Скриншоты:

Cкриншоты меню:



Детали торрента:
Название:Команда 33 (1987) DVD5
Дата добавления:21 Июл 2015 11:47:16
Размер:3,77 GB
Раздают:
Качают:1
Форум:Старые Отечественные Фильмы (HD, UHD, UHD-LQ, DVD)

All rights reserved © 2015-2019