TORRENTS45.XYZ

Скачать Дмитрий Федотов | Интерьерная визуализация (2013) PCRec [H.264]


Дмитрий Федотов | Интерьерная визуализация (2013) PCRec [H.264]
Автор (режиссер): Дмитрий Федотов
Производство: Rеnder.ru
Жанр: 3D-графика

Описание:
Курс ориентирован на тех, кто знаком с интерфейсом программного пакета Autodesk 3ds Max и хочет специализироваться в интерьерной или архитектурной визуализации.
На примере демонстрационного интерьера, слушатели создают свой собственный интерьер и анимацию пролета камеры по нему.
Курс разбит на две части, и в зависимости от уровня подготовленности, слушатели могут пройти обучение, как целиком, так и по частям.

Продолжительность: 11:48:24
Качество видео: PCRec

Видео: AVC/H.264, 1280x1024, 1280x720, ~1433 kbps
Аудио: AAC, 2 ch, 64 kbps

Mediainfo:

Код:

Общее
Полное имя                               : H:\Интерьерная визуализация\Part I\5\2fish modeling2part.mov
Формат                                   : MPEG-4
Профиль формата                          : QuickTime
Идентификатор кодека                     : qt
Размер файла                             : 307 Мбайт
Продолжительность                        : 28 м.
Режим общего битрейта                    : Переменный
Общий поток                              : 1501 Кбит/сек
Дата кодирования                         : UTC 1970-01-01 00:00:00
Дата пометки                             : UTC 1970-01-01 00:00:00
Программа кодирования                    : Lavf52.39.1
Примечание                               : QuickTime 6.0 or greater

Видео
Идентификатор                            : 1
Формат                                   : AVC
Формат/Информация                        : Advanced Video Codec
Профиль формата                          : Baseline@L5.1
Параметр CABAC формата                   : Нет
Параметр ReFrames формата                : 1 кадр
Параметр GOP формата                     : M=1, N=12
Идентификатор кодека                     : avc1
Идентификатор кодека/Информация          : Advanced Video Coding
Продолжительность                        : 28 м.
Битрейт                                  : 1433 Кбит/сек
Ширина                                   : 1280 пикселей
Высота                                   : 1024 пикселя
Соотношение сторон                       : 5:4
Режим частоты кадров                     : Постоянный
Частота кадров                           : 15,000 кадров/сек
Цветовое пространство                    : YUV
Субдискретизация насыщенности            : 4:2:0
Битовая глубина                          : 8 бит
Тип развёртки                            : Прогрессивная
Бит/(Пиксели*Кадры)                      : 0.073
Размер потока                            : 294 Мбайт (95%)
Язык                                     : English
Дата кодирования                         : UTC 1970-01-01 00:00:00
Дата пометки                             : UTC 1970-01-01 00:00:00

Аудио
Идентификатор                            : 2
Формат                                   : AAC
Формат/Информация                        : Advanced Audio Codec
Профиль формата                          : LC
Идентификатор кодека                     : 40
Продолжительность                        : 28 м.
Вид битрейта                             : Переменный
Битрейт                                  : 64,0 Кбит/сек
Каналы                                   : 1 канал
Расположение каналов                     : Front: C
Частота                                  : 44,1 КГц
Метод сжатия                             : С потерями
Размер потока                            : 13,1 Мбайт (4%)
Язык                                     : English
Дата кодирования                         : UTC 1970-01-01 00:00:00
Дата пометки                             : UTC 1970-01-01 00:00:00

Дополнительная информация:

Часть I. Создание интерьера в Autodesk 3ds Max.

1 Ознакомление с интерфейсом программы. Настройка и сохранение интерфейса. Использование горячих клавиш. Новые полезные инструменты.
2 Создание помещения. Несколько способов создать стены, окна, двери, в том числе с использованием возможностей Vray. Импорт из CAD программ.
3 Моделинг элементов интерьера. Моделирование стеганного кресла, настройка материала Vray. Моделинг гипсовой лепнины. Poligon Flow, инструменты полигонального моделирования, модификаторы.
4 Наполнение интерьера деталями, стаффаж.
5 Создание статуэтки рыбы. Моделинг, мапинг, текстуринг, Paint Tool . Рендер Z Depth, Vray Displacement.
6 Моделинг плетеной мебели. Моделирование с помощью сплайнов, Edit poly, Graphite Modeling Tools. 7 7 7 Рендеринг Z Depth и создание Displacement с помощью полученной карты. Карты нормали. Основы настройки материалов и основы рендеринга.
7 Моделирование люстры из сплайнов. Graphite Modeling Tools, Connect, Lathe и т.д.
8 Создание занавесок, тканей, балдахинов с помощью MarvelousDesigner а так же встроенных в 3Ds Max инструментов Cloth и Mass FX MCloth.
9 Анимация камеры, редактор анимационных кривых. Path constraint.

Часть II. Создание фотореалистичного интерьера при помощи рендера V-Ray.

1 Светильники Vray и быстрая настройка рендеринга.
2 Материалы и карты V-Ray. Substance карты. Slate material editor. Настройки гаммы.
3 Карты Vray, практическая работа по настройке материалов и карт в сцене. Настройка рендеринга. Физическая камера V-Ray. Глобальное освещение. .
4 Image sampler и глобальное освещение.
5 Рендеринг дневной и ночной сцены. Композинг в Blackmagicdesign Fusion.
6 Рендер анимации со статичными и движущимися объектами.
7 Дополнительные возможности V-Ray. VrayToon, VrayFrameBufer, VrayProxy. Vray Fur, Hair and Fur, Vray Volume fog, Displacement.
Выражаю особую благодарность opelclub1 :цветок: (и вам советую :дьявол: ). Без него мои релизы не состоялись бы...

Скриншоты:


Детали торрента:
Название:Дмитрий Федотов | Интерьерная визуализация (2013) PCRec [H.264]
Дата добавления:14 Июл 2015 23:05:41
Размер:12 GB
Раздают:2
Качают:0
Форум:Компьютеры

All rights reserved © 2015-2019