TORRENTS45.XYZ

Скачать Johann Sebastian Bach - Cafe Zimmermann vol. I-VI, autentic, 6CD (2001-2011) [WavPack|ISO.wv]<Classical>


Johann Sebastian Bach
Cafe Zimmermann
Pablo Valetti
(2001-2011)

Год: 2001-2011
Жанр: Classical
Продолжительность: 06:17:34

Кодек: WavPack
Битрейт: Lossless
Тип рипа: iso.wv
Производитель диска: Alpha
ASIN: B00005S0MC, B0000TMJK0, B0007P78MG, no number asin, B004CN8HXI, B005IQXTC2.
Наличие сканов в содержимом раздачи: да

CD1 - 2001 Concerto BWV.1052, BWV.1055, BWV.1042, 1050


Треклист:
Concerto pour clavecin en Re Mineur, BWV.1052
01. Allegro (07:36)
02. Adagio (06:13)
03. Allegro (07:28)
Concerto pour hautbois d:amour en La Majeur, BWV.1055
04. Allegro (04:13)
05. Larghetto (04:28)
06. Allegro ma non tanto (04:01)
Concerto pour violon en Mi Majeur, BWV.1042
07. Allegro (07:20)
08. Adagio (05:29)
09. Allegro Assai (02:41)
Concert Brandebourgeois No. 5 en Re Majeur, BWV.1050
10. Allegro (09:42)
11. Affetuoso (05:01)
12. Allegro (05:14)

Прoдолжительность: 01:09:22

Отчёт ЕАС:

Код:

Exact Audio Copy V0.99 prebeta 4 from 23. January 2008

EAC extraction logfile from 26. July 2010, 21:30

J.S. Bach / Concerts avec plusieurs instruments I (Cafe Zimmermann)

Used drive  : PLEXTOR DVDR   PX-755A   Adapter: 1  ID: 1

Read mode               : Secure
Utilize accurate stream : Yes
Defeat audio cache      : Yes
Make use of C2 pointers : No

Read offset correction                      : 30
Overread into Lead-In and Lead-Out          : No
Fill up missing offset samples with silence : Yes
Delete leading and trailing silent blocks   : No
Null samples used in CRC calculations       : Yes
Used interface                              : Installed external ASPI interface

Used output format : Internal WAV Routines
Sample format      : 44.100 Hz; 16 Bit; Stereo

TOC of the extracted CD

     Track |   Start  |  Length  | Start sector | End sector
    ---------------------------------------------------------
        1  |  0:00.00 |  7:26.40 |         0    |    33489
        2  |  7:26.40 |  6:13.51 |     33490    |    61515
        3  | 13:40.16 |  7:28.18 |     61516    |    95133
        4  | 21:08.34 |  4:13.30 |     95134    |   114138
        5  | 25:21.64 |  4:28.06 |    114139    |   134244
        6  | 29:49.70 |  4:01.69 |    134245    |   152388
        7  | 33:51.64 |  7:20.27 |    152389    |   185415
        8  | 41:12.16 |  5:29.20 |    185416    |   210110
        9  | 46:41.36 |  2:41.06 |    210111    |   222191
       10  | 49:22.42 |  9:42.48 |    222192    |   265889
       11  | 59:05.15 |  5:01.12 |    265890    |   288476
       12  | 64:06.27 |  5:14.09 |    288477    |   312035

Range status and errors

Selected range

     Filename Z:\NetLab\J.S. Bach - Concerts avec plusieurs instruments I (Cafe Zimmermann) (2001)\J.S. Bach - Concerts avec plusieurs instruments I (Cafe Zimmermann).wav

     Peak level 100.0 %
     Range quality 100.0 %
     Test CRC 051443C4
     Copy CRC 051443C4
     Copy OK

No errors occurred

AccurateRip summary

Track  1  accurately ripped (confidence 13)  [051761E0]
Track  2  accurately ripped (confidence 15)  [A0BB02AC]
Track  3  accurately ripped (confidence 14)  [C9588A31]
Track  4  accurately ripped (confidence 15)  [7469C71F]
Track  5  accurately ripped (confidence 16)  [CE40AF1B]
Track  6  accurately ripped (confidence 15)  [630E276D]
Track  7  accurately ripped (confidence 15)  [25F0FD80]
Track  8  accurately ripped (confidence 16)  [5D99D9F2]
Track  9  accurately ripped (confidence 15)  [48D03139]
Track 10  accurately ripped (confidence 15)  [1FE7FD11]
Track 11  accurately ripped (confidence 16)  [E7CE5A7B]
Track 12  accurately ripped (confidence 16)  [53FF372D]

All tracks accurately ripped

End of status report

Содержание индексной карты 0*.cue):

Код:

REM GENRE "Classical"
REM DATE 2001
REM DISCID AA10400C
REM COMMENT "ExactAudioCopy v0.99pb4"
PERFORMER "J.S. Bach"
TITLE "Concerts avec plusieurs instruments I (Cafe Zimmermann)"
FILE "J.S. Bach - Concerts avec plusieurs instruments I (Cafe Zimmermann).wv" WAVE
  TRACK 01 AUDIO
    TITLE "Concerto pour clavecin en Re Mineur, BWV 1052; I. Allegro"
    PERFORMER "J.S. Bach"
    INDEX 01 00:00:00
  TRACK 02 AUDIO
    TITLE "Concerto pour clavecin en Re Mineur, BWV 1052; II. Adagio"
    PERFORMER "J.S. Bach"
    INDEX 01 07:26:40
  TRACK 03 AUDIO
    TITLE "Concerto pour clavecin en Re Mineur, BWV 1052; III. Allegro"
    PERFORMER "J.S. Bach"
    INDEX 01 13:40:16
  TRACK 04 AUDIO
    TITLE " Concerto pour hautbois d'amour en La Majeur, BWV 1055; I. Allegro"
    PERFORMER "J.S. Bach"
    INDEX 00 21:01:68
    INDEX 01 21:08:34
  TRACK 05 AUDIO
    TITLE " Concerto pour hautbois d'amour en La Majeur, BWV 1055; II. Larghetto"
    PERFORMER "J.S. Bach"
    INDEX 00 25:21:63
    INDEX 01 25:21:64
  TRACK 06 AUDIO
    TITLE " Concerto pour hautbois d'amour en La Majeur, BWV 1055; III. Allegro ma non t..."
    PERFORMER "J.S. Bach"
    INDEX 01 29:49:70
  TRACK 07 AUDIO
    TITLE "Concerto pour violon en Mi Majeur, BWV 1042; I. Allegro"
    PERFORMER "J.S. Bach"
    INDEX 00 33:46:32
    INDEX 01 33:51:64
  TRACK 08 AUDIO
    TITLE "Concerto pour violon en Mi Majeur, BWV 1042; II. Adagio"
    PERFORMER "J.S. Bach"
    INDEX 00 41:12:15
    INDEX 01 41:12:16
  TRACK 09 AUDIO
    TITLE "Concerto pour violon en Mi Majeur, BWV 1042; III. Allegro Assai"
    PERFORMER "J.S. Bach"
    INDEX 01 46:41:36
  TRACK 10 AUDIO
    TITLE "Concert Brandebourgeois No. 5 en Re Majeur, BWV 1050; I. Allegro"
    PERFORMER "J.S. Bach"
    INDEX 00 49:16:06
    INDEX 01 49:22:42
  TRACK 11 AUDIO
    TITLE "Concert Brandebourgeois No. 5 en Re Majeur, BWV 1050; II. Affettuoso"
    PERFORMER "J.S. Bach"
    INDEX 01 59:05:15
  TRACK 12 AUDIO
    TITLE "Concert Brandebourgeois No. 5 en Re Majeur, BWV 1050; III. Allegro"
    PERFORMER "J.S. Bach"
    INDEX 01 64:06:27

Отчёт auCDtect Task manager:

Код:

-----------------------

DON'T MODIFY THIS FILE

-----------------------

PERFORMER: auCDtect Task Manager, ver. 1.6.0 RC1 build 1.6.0.1
Copyright (c) 2008-2010 y-soft. All rights reserved
http://y-soft.org

ANALYZER: auCDtect: CD records authenticity detector, version 0.8.2
Copyright (c) 2004 Oleg Berngardt. All rights reserved.
Copyright (c) 2004 Alexander Djourik. All rights reserved.

FILE: J.S. Bach - Concerts avec plusieurs instruments I (Cafe Zimmermann).wv
  Size: 394859544 Hash: E3790A93ABF8CC8631E9FCC4C62427D1 Accuracy: -m0
  Conclusion: CDDA 100%
  Signature: 587F61050383706F8867F34A06704BC2EEE9F0A1

CD2 - 2003 Concerto BWV.1048, BWV.1043, BWV.1066, Concerto For Oboe & Violin


Треклист:
01. Concert Brandebourgeois No. 3 en Sol Majeur, BWV.1048; I. Allegro - Adagio (05:19)
02. II. Allegro (04:19)
03. Concerto For 2 Violins, Strings & Continuo In D Minor ('Double'), BWV.1043; I... (03:26)
04. II. Largo ma non tanto (05:58)
05. III. Allegro (04:11)
06. Orchestral Suite No. 1 In C Major, BWV.1066; I. Ouverture (09:03)
07. II. Courante (02:05)
08. III. Ouverture. Gavottes I & II (02:39)
09. IV. Forlane (01:08)
10. V. Menuets I & II (02:54)
11. VI. Bourrees I & II (02:22)
12. VII. Passepieds I & II (03:10)
13. Concerto For Oboe & Violin (or 2 Violins), Strings & Continuo (reconstruction... (04:19)
14. II. Adagio (04:33)
15. III. Allegro (03:09)
Прoдолжительность: 00:58:29

Отчёт ЕАС:

Код:

Exact Audio Copy V0.99 prebeta 4 from 23. January 2008

EAC extraction logfile from 28. July 2010, 22:07

J.S. Bach / Concerts avec plusieurs instruments II (Cafe Zimmermann)

Used drive  : PLEXTOR DVDR   PX-755A   Adapter: 1  ID: 1

Read mode               : Secure
Utilize accurate stream : Yes
Defeat audio cache      : Yes
Make use of C2 pointers : No

Read offset correction                      : 30
Overread into Lead-In and Lead-Out          : No
Fill up missing offset samples with silence : Yes
Delete leading and trailing silent blocks   : No
Null samples used in CRC calculations       : Yes
Used interface                              : Installed external ASPI interface

Used output format : Internal WAV Routines
Sample format      : 44.100 Hz; 16 Bit; Stereo

TOC of the extracted CD

     Track |   Start  |  Length  | Start sector | End sector
    ---------------------------------------------------------
        1  |  0:00.37 |  5:18.34 |        37    |    23920
        2  |  5:18.71 |  4:18.06 |     23921    |    43276
        3  |  9:37.02 |  3:25.69 |     43277    |    58720
        4  | 13:02.71 |  5:57.19 |     58721    |    85514
        5  | 19:00.15 |  4:10.22 |     85515    |   104286
        6  | 23:10.37 |  9:02.10 |    104287    |   144946
        7  | 32:12.47 |  2:04.47 |    144947    |   154293
        8  | 34:17.19 |  2:38.57 |    154294    |   166200
        9  | 36:56.01 |  1:07.28 |    166201    |   171253
       10  | 38:03.29 |  2:53.69 |    171254    |   184297
       11  | 40:57.23 |  2:21.43 |    184298    |   194915
       12  | 43:18.66 |  3:09.58 |    194916    |   209148
       13  | 46:28.49 |  4:18.38 |    209149    |   228536
       14  | 50:47.12 |  4:32.04 |    228537    |   248940
       15  | 55:19.16 |  3:08.18 |    248941    |   263058

Range status and errors

Selected range

     Filename Z:\NetLab\J.S. Bach - Concerts avec plusieurs instruments II (Cafe Zimmermann) (2003)\J.S. Bach - Concerts avec plusieurs instruments II (Cafe Zimmermann).wav

     Peak level 99.8 %
     Range quality 100.0 %
     Test CRC F91C4B02
     Copy CRC F91C4B02
     Copy OK

No errors occurred

AccurateRip summary

Track  1  accurately ripped (confidence 11)  [F37992DA]
Track  2  accurately ripped (confidence 11)  [280C7C16]
Track  3  accurately ripped (confidence 11)  [7079B80A]
Track  4  accurately ripped (confidence 10)  [70FD0FE5]
Track  5  accurately ripped (confidence 11)  [E414A7E5]
Track  6  accurately ripped (confidence 11)  [E559C7E2]
Track  7  accurately ripped (confidence 11)  [9A754E3A]
Track  8  accurately ripped (confidence 11)  [4F7C02F2]
Track  9  accurately ripped (confidence 10)  [21D012DC]
Track 10  accurately ripped (confidence 11)  [46EB85AC]
Track 11  accurately ripped (confidence 11)  [F576AFF6]
Track 12  accurately ripped (confidence 11)  [69E9EA01]
Track 13  accurately ripped (confidence 11)  [D2E57753]
Track 14  accurately ripped (confidence 12)  [BE4DE03A]
Track 15  accurately ripped (confidence 11)  [D1969252]

All tracks accurately ripped

End of status report

Содержание индексной карты 0*.cue):

Код:

REM GENRE "Classical"
REM DATE 2003
REM DISCID CC0DB30F
REM COMMENT "ExactAudioCopy v0.99pb4"
PERFORMER "J.S. Bach"
TITLE "Concerts avec plusieurs instruments II (Cafe Zimmermann)"
FILE "J.S. Bach - Concerts avec plusieurs instruments II (Cafe Zimmermann).wv" WAVE
  TRACK 01 AUDIO
    TITLE "Concert Brandebourgeois No. 3 en Sol Majeur, BWV 1048; I. Allegro - Adagio"
    PERFORMER "J.S. Bach"
    INDEX 00 00:00:00
    INDEX 01 00:00:37
  TRACK 02 AUDIO
    TITLE "II. Allegro"
    PERFORMER "J.S. Bach"
    INDEX 01 05:18:71
  TRACK 03 AUDIO
    TITLE "Concerto For 2 Violins, Strings & Continuo In D Minor ('Double'), BWV 1043; I..."
    PERFORMER "J.S. Bach"
    INDEX 00 09:30:22
    INDEX 01 09:37:02
  TRACK 04 AUDIO
    TITLE "II. Largo ma non tanto"
    PERFORMER "J.S. Bach"
    INDEX 01 13:02:71
  TRACK 05 AUDIO
    TITLE "III. Allegro"
    PERFORMER "J.S. Bach"
    INDEX 01 19:00:15
  TRACK 06 AUDIO
    TITLE "Orchestral Suite No. 1 In C Major, BWV 1066; I. Ouverture"
    PERFORMER "J.S. Bach"
    INDEX 00 23:03:58
    INDEX 01 23:10:37
  TRACK 07 AUDIO
    TITLE "II. Courante"
    PERFORMER "J.S. Bach"
    INDEX 01 32:12:47
  TRACK 08 AUDIO
    TITLE "III. Ouverture. Gavottes I & II"
    PERFORMER "J.S. Bach"
    INDEX 01 34:17:19
  TRACK 09 AUDIO
    TITLE "IV. Forlane"
    PERFORMER "J.S. Bach"
    INDEX 01 36:56:01
  TRACK 10 AUDIO
    TITLE "V. Menuets I & II"
    PERFORMER "J.S. Bach"
    INDEX 01 38:03:29
  TRACK 11 AUDIO
    TITLE "VI. Bourrees I & II"
    PERFORMER "J.S. Bach"
    INDEX 01 40:57:23
  TRACK 12 AUDIO
    TITLE "VII. Passepieds I & II"
    PERFORMER "J.S. Bach"
    INDEX 01 43:18:66
  TRACK 13 AUDIO
    TITLE "Concerto For Oboe & Violin (or 2 Violins), Strings & Continuo (reconstruction..."
    PERFORMER "J.S. Bach"
    INDEX 00 46:21:37
    INDEX 01 46:28:49
  TRACK 14 AUDIO
    TITLE "II. Adagio"
    PERFORMER "J.S. Bach"
    INDEX 01 50:47:12
  TRACK 15 AUDIO
    TITLE "III. Allegro"
    PERFORMER "J.S. Bach"
    INDEX 01 55:19:16

Отчёт auCDtect Task manager:

Код:

-----------------------

DON'T MODIFY THIS FILE

-----------------------

PERFORMER: auCDtect Task Manager, ver. 1.6.0 RC1 build 1.6.0.1
Copyright (c) 2008-2010 y-soft. All rights reserved
http://y-soft.org

ANALYZER: auCDtect: CD records authenticity detector, version 0.8.2
Copyright (c) 2004 Oleg Berngardt. All rights reserved.
Copyright (c) 2004 Alexander Djourik. All rights reserved.

FILE: J.S. Bach - Concerts avec plusieurs instruments II (Cafe Zimmermann).wv
  Size: 339922353 Hash: 095BA75031F6C9329C20AEDAA8238BAE Accuracy: -m0
  Conclusion: CDDA 100%
  Signature: 512CA6D476CB36A5EA2F951512055644E5247DA7

CD3 - 2004 Concerto BWV.1049, BWV.1053, BWV.1064, BWV.1067


Треклист:
01. Concert Brandebourgeois No. 4, en Sol Majeur, BWV.1049; I. Allegro (06:10)
02. II. Andante (03:51)
03. III. Presto (04:22)
04. Concerto Pour Hautbois D' Amour, BWV.1053; I. (Sans Titre) (07:06)
05. II. Siciliano (04:47)
06. III. Allegro (06:07)
07. Concerto Pour Trois Clavecins, en Do Majeur, BWV.1064; I. (Sans Titre) (05:41)
08. II. Adagio (05:18)
09. III. Allegro (04:28)
10. Suite en Si Mineur, BWV.1067; I. Ouverture (10:06)
11. II. Rondeau (01:29)
12. III. Sarabande (03:16)
13. IV. Bouree I & I I (02:05)
14. V. Polonaise & Double (03:45)
15. VI. Menuet (00:55)
16. VII. Badinerie (01:24)
Прoдолжительность: 01:10:44

Отчёт ЕАС:

Код:

Exact Audio Copy V0.99 prebeta 4 from 23. January 2008

EAC extraction logfile from 6. August 2010, 1:04

J.S. Bach / Concerts avec plusieurs instruments III (Cafe Zimmermann)

Used drive  : PLEXTOR DVDR   PX-755A   Adapter: 1  ID: 1

Read mode               : Secure
Utilize accurate stream : Yes
Defeat audio cache      : Yes
Make use of C2 pointers : No

Read offset correction                      : 30
Overread into Lead-In and Lead-Out          : No
Fill up missing offset samples with silence : Yes
Delete leading and trailing silent blocks   : No
Null samples used in CRC calculations       : Yes
Used interface                              : Installed external ASPI interface

Used output format : Internal WAV Routines
Sample format      : 44.100 Hz; 16 Bit; Stereo

TOC of the extracted CD

     Track |   Start  |  Length  | Start sector | End sector
    ---------------------------------------------------------
        1  |  0:00.00 |  6:09.67 |         0    |    27741
        2  |  6:09.67 |  3:50.49 |     27742    |    45040
        3  | 10:00.41 |  4:21.21 |     45041    |    64636
        4  | 14:21.62 |  7:05.62 |     64637    |    96573
        5  | 21:27.49 |  4:46.36 |     96574    |   118059
        6  | 26:14.10 |  6:06.10 |    118060    |   145519
        7  | 32:20.20 |  5:40.21 |    145520    |   171040
        8  | 38:00.41 |  5:17.33 |    171041    |   194848
        9  | 43:17.74 |  4:27.72 |    194849    |   214945
       10  | 47:45.71 | 10:05.56 |    214946    |   260376
       11  | 57:51.52 |  1:28.15 |    260377    |   266991
       12  | 59:19.67 |  3:15.49 |    266992    |   281665
       13  | 62:35.41 |  2:04.47 |    281666    |   291012
       14  | 64:40.13 |  3:44.62 |    291013    |   307874
       15  | 68:25.00 |  0:54.37 |    307875    |   311961
       16  | 69:19.37 |  1:23.57 |    311962    |   318243

Range status and errors

Selected range

     Filename Z:\NetLab\J.S. Bach - Concerts avec plusieurs instruments III (Cafe Zimmermann) (2004)\J.S. Bach - Concerts avec plusieurs instruments III (Cafe Zimmermann).wav

     Peak level 100.0 %
     Range quality 100.0 %
     Test CRC F6C80424
     Copy CRC F6C80424
     Copy OK

No errors occurred

AccurateRip summary

Track  1  accurately ripped (confidence 10)  [E9B38C15]
Track  2  accurately ripped (confidence 10)  [2A339F94]
Track  3  accurately ripped (confidence 10)  [A4B3E374]
Track  4  accurately ripped (confidence 10)  [D8AC0A20]
Track  5  accurately ripped (confidence 10)  [EA58F6E1]
Track  6  accurately ripped (confidence 10)  [67E49113]
Track  7  accurately ripped (confidence 10)  [D6AFADC9]
Track  8  accurately ripped (confidence 10)  [F9FA6045]
Track  9  accurately ripped (confidence 10)  [19DFDDC8]
Track 10  accurately ripped (confidence 10)  [47A01C6D]
Track 11  accurately ripped (confidence 10)  [9036844D]
Track 12  accurately ripped (confidence 10)  [C99AFE4C]
Track 13  accurately ripped (confidence 10)  [A1A1BB6B]
Track 14  accurately ripped (confidence 10)  [209DAF90]
Track 15  accurately ripped (confidence 10)  [148D8DCD]
Track 16  accurately ripped (confidence 10)  [A8DAE139]

All tracks accurately ripped

End of status report

Содержание индексной карты 0*.cue):

Код:

REM GENRE "Classical"
REM DATE 2004
REM DISCID FE109310
REM COMMENT "ExactAudioCopy v0.99pb4"
PERFORMER "J.S. Bach"
TITLE "Concerts avec plusieurs instruments III (Cafe Zimmermann)"
FILE "J.S. Bach - Concerts avec plusieurs instruments III (Cafe Zimmermann).wv" WAVE
  TRACK 01 AUDIO
    TITLE "Concert Brandebourgeois No. 4, en Sol Majeur, BWV 1049; I. Allegro"
    PERFORMER "J.S. Bach"
    INDEX 01 00:00:00
  TRACK 02 AUDIO
    TITLE "II. Andante"
    PERFORMER "J.S. Bach"
    INDEX 01 06:09:67
  TRACK 03 AUDIO
    TITLE "III. Presto"
    PERFORMER "J.S. Bach"
    INDEX 01 10:00:41
  TRACK 04 AUDIO
    TITLE "Concerto Pour Hautbois D' Amour, BWV 1053; I. (Sans Titre)"
    PERFORMER "J.S. Bach"
    INDEX 00 14:15:25
    INDEX 01 14:21:62
  TRACK 05 AUDIO
    TITLE "II. Siciliano"
    PERFORMER "J.S. Bach"
    INDEX 01 21:27:49
  TRACK 06 AUDIO
    TITLE "III. Allegro"
    PERFORMER "J.S. Bach"
    INDEX 01 26:14:10
  TRACK 07 AUDIO
    TITLE "Concerto Pour Trois Clavecins, en Do Majeur, BWV 1064; I. (Sans Titre)"
    PERFORMER "J.S. Bach"
    INDEX 00 32:15:01
    INDEX 01 32:20:20
  TRACK 08 AUDIO
    TITLE "II. Adagio"
    PERFORMER "J.S. Bach"
    INDEX 01 38:00:41
  TRACK 09 AUDIO
    TITLE "III. Allegro"
    PERFORMER "J.S. Bach"
    INDEX 01 43:17:74
  TRACK 10 AUDIO
    TITLE "Suite en Si Mineur, BWV 1067; I. Ouverture"
    PERFORMER "J.S. Bach"
    INDEX 00 47:39:38
    INDEX 01 47:45:71
  TRACK 11 AUDIO
    TITLE "II. Rondeau"
    PERFORMER "J.S. Bach"
    INDEX 01 57:51:52
  TRACK 12 AUDIO
    TITLE "III. Sarabande"
    PERFORMER "J.S. Bach"
    INDEX 01 59:19:67
  TRACK 13 AUDIO
    TITLE "IV. Bouree I & I I   "
    PERFORMER "J.S. Bach"
    INDEX 01 62:35:41
  TRACK 14 AUDIO
    TITLE "V. Polonaise & Double"
    PERFORMER "J.S. Bach"
    INDEX 01 64:40:13
  TRACK 15 AUDIO
    TITLE "VI. Menuet"
    PERFORMER "J.S. Bach"
    INDEX 01 68:25:00
  TRACK 16 AUDIO
    TITLE "VII. Badinerie"
    PERFORMER "J.S. Bach"
    INDEX 01 69:19:37

Отчёт auCDtect Task manager:

Код:

-----------------------

DON'T MODIFY THIS FILE

-----------------------

PERFORMER: auCDtect Task Manager, ver. 1.6.0 RC1 build 1.6.0.1
Copyright (c) 2008-2010 y-soft. All rights reserved
http://y-soft.org

ANALYZER: auCDtect: CD records authenticity detector, version 0.8.2
Copyright (c) 2004 Oleg Berngardt. All rights reserved.
Copyright (c) 2004 Alexander Djourik. All rights reserved.

FILE: J.S. Bach - Concerts avec plusieurs instruments III (Cafe Zimmermann).wv
  Size: 411530286 Hash: 9A97233980CC1E7D7DC9CB76234209E9 Accuracy: -m0
  Conclusion: CDDA 100%
  Signature: 1F623E89C1FD0A8606D2286BB994519E8B186D70

CD4 - 2008 Concerto BWV.1041, BWV.1061, BWV.1044, 1047


Треклист:
01. Concerto pour violon en La Mineur BWV.1041; I. (Sans Titre) (03:30)
02. II. Andante (06:46)
03. III. Allegro assai (03:32)
04. Concerto pour 2 clavecins en Ut Majeur BWV.1061; I. (Sans Titre) (06:47)
05. II. Adagio (04:44)
06. III. Vivace (05:26)
07. Concerto pour flute, violon & clavecin en La Mineur BWV.1044; I. Andante (07:56)
08. II. Adagio ma non tanto e dolce (04:56)
09. III. Tempo di Allabreve (06:15)
10. Concert Brandebourgeois No. 2 en Fa Majeur BWV.1047; I. (Sans Titre) (04:52)
11. II. Andante (03:37)
12. III. Allegro assai (02:50)
Прoдолжительность: 01:01073

Отчёт ЕАС:

Код:

Exact Audio Copy V0.99 prebeta 4 from 23. January 2008

EAC extraction logfile from 12. August 2010, 14:53

J.S. Bach / Concerts avec plusieurs instruments IV (Cafe Zimmermann)

Used drive  : PLEXTOR DVDR   PX-755A   Adapter: 1  ID: 1

Read mode               : Secure
Utilize accurate stream : Yes
Defeat audio cache      : Yes
Make use of C2 pointers : No

Read offset correction                      : 30
Overread into Lead-In and Lead-Out          : No
Fill up missing offset samples with silence : Yes
Delete leading and trailing silent blocks   : No
Null samples used in CRC calculations       : Yes
Used interface                              : Installed external ASPI interface

Used output format : Internal WAV Routines
Sample format      : 44.100 Hz; 16 Bit; Stereo

TOC of the extracted CD

     Track |   Start  |  Length  | Start sector | End sector
    ---------------------------------------------------------
        1  |  0:00.00 |  3:29.58 |         0    |    15732
        2  |  3:29.58 |  6:45.33 |     15733    |    46140
        3  | 10:15.16 |  3:31.49 |     46141    |    62014
        4  | 13:46.65 |  6:46.47 |     62015    |    92511
        5  | 20:33.37 |  4:43.49 |     92512    |   113785
        6  | 25:17.11 |  5:25.03 |    113786    |   138163
        7  | 30:42.14 |  7:55.74 |    138164    |   173862
        8  | 38:38.13 |  4:55.52 |    173863    |   196039
        9  | 43:33.65 |  6:14.37 |    196040    |   224126
       10  | 49:48.27 |  4:51.12 |    224127    |   245963
       11  | 54:39.39 |  3:36.36 |    245964    |   262199
       12  | 58:16.00 |  2:49.53 |    262200    |   274927

Range status and errors

Selected range

     Filename Z:\NetLab\J.S. Bach - Concerts avec plusieurs instruments IV (Cafe Zimmermann) (2008)\J.S. Bach - Concerts avec plusieurs instruments IV (Cafe Zimmermann).wav

     Peak level 98.9 %
     Range quality 100.0 %
     Test CRC 8796D740
     Copy CRC 8796D740
     Copy OK

No errors occurred

AccurateRip summary

Track  1  accurately ripped (confidence 11)  [498992D5]
Track  2  accurately ripped (confidence 10)  [9F3C4670]
Track  3  accurately ripped (confidence 10)  [2D212FE0]
Track  4  accurately ripped (confidence 10)  [42E4A697]
Track  5  accurately ripped (confidence 10)  [FD33F7BA]
Track  6  accurately ripped (confidence 10)  [B165C0CF]
Track  7  accurately ripped (confidence 10)  [22CFE7EE]
Track  8  accurately ripped (confidence 10)  [ED8CAE84]
Track  9  accurately ripped (confidence 9)  [905B3833]
Track 10  accurately ripped (confidence 10)  [3B2EE80A]
Track 11  accurately ripped (confidence 10)  [0247DC9B]
Track 12  accurately ripped (confidence 10)  [25680FA7]

All tracks accurately ripped

End of status report

Содержание индексной карты 0*.cue):

Код:

REM GENRE "Classical"
REM DATE 2008
REM DISCID A10E510C
REM COMMENT "ExactAudioCopy v0.99pb4"
PERFORMER "J.S. Bach"
TITLE "Concerts avec plusieurs instruments IV (Cafe Zimmermann)"
FILE "J.S. Bach - Concerts avec plusieurs instruments IV (Cafe Zimmermann).wv" WAVE
  TRACK 01 AUDIO
    TITLE "Concerto pour violon en La Mineur BWV 1041; I. (Sans Titre)"
    PERFORMER "J.S. Bach"
    INDEX 01 00:00:00
  TRACK 02 AUDIO
    TITLE "II. Andante"
    PERFORMER "J.S. Bach"
    INDEX 01 03:29:58
  TRACK 03 AUDIO
    TITLE "III. Allegro assai"
    PERFORMER "J.S. Bach"
    INDEX 01 10:15:16
  TRACK 04 AUDIO
    TITLE "Concerto pour 2 clavecins en Ut Majeur BWV 1061; I. (Sans Titre)"
    PERFORMER "J.S. Bach"
    INDEX 00 13:40:62
    INDEX 01 13:46:65
  TRACK 05 AUDIO
    TITLE "II. Adagio"
    PERFORMER "J.S. Bach"
    INDEX 01 20:33:37
  TRACK 06 AUDIO
    TITLE "III. Vivace"
    PERFORMER "J.S. Bach"
    INDEX 01 25:17:11
  TRACK 07 AUDIO
    TITLE "Concerto pour flute, violon & clavecin en La Mineur BWV 1044; I. Andante"
    PERFORMER "J.S. Bach"
    INDEX 00 30:37:74
    INDEX 01 30:42:14
  TRACK 08 AUDIO
    TITLE "II. Adagio ma non tanto e dolce"
    PERFORMER "J.S. Bach"
    INDEX 01 38:38:13
  TRACK 09 AUDIO
    TITLE "III. Tempo di Allabreve"
    PERFORMER "J.S. Bach"
    INDEX 01 43:33:65
  TRACK 10 AUDIO
    TITLE "Concert Brandebourgeois No. 2 en Fa Majeur BWV 1047; I. (Sans Titre)"
    PERFORMER "J.S. Bach"
    INDEX 00 49:44:02
    INDEX 01 49:48:27
  TRACK 11 AUDIO
    TITLE "II. Andante"
    PERFORMER "J.S. Bach"
    INDEX 01 54:39:39
  TRACK 12 AUDIO
    TITLE "III. Allegro assai"
    PERFORMER "J.S. Bach"
    INDEX 01 58:16:00

Отчёт auCDtect Task manager:

Код:

-----------------------

DON'T MODIFY THIS FILE

-----------------------

PERFORMER: auCDtect Task Manager, ver. 1.6.0 RC1 build 1.6.0.1
Copyright (c) 2008-2010 y-soft. All rights reserved
http://y-soft.org

ANALYZER: auCDtect: CD records authenticity detector, version 0.8.2
Copyright (c) 2004 Oleg Berngardt. All rights reserved.
Copyright (c) 2004 Alexander Djourik. All rights reserved.

FILE: J.S. Bach - Concerts avec plusieurs instruments IV (Cafe Zimmermann).wv
  Size: 351818426 Hash: FF1B4F59F7C443A4D9F31E3BB167A641 Accuracy: -m0
  Conclusion: CDDA 100%
  Signature: B5B3D99570486AEAA8F7DB15D1F6C40066FC9057

CD5 - 2004-2010-2011 Concerto BWV.1068, BWV.1056, BWV.1051, 1063


Треклист:
01. Ouverture No. 3 en Re Majeur, BWV.1068; I. Ouverture (09:34)
02. II. Air (03:33)
03. III. Gavottes I et II (03:55)
04. IV. Bourree (01:07)
05. V. Gigue (02:39)
06. Concerto pour clavecin en Fa Mineur, BWV.1056; I. Allegro (03:07)
07. II. Adagio (02:44)
08. III. Presto (03:18)
09. Concerto Brandebourgeois No. 6 en Si Bemol Majeur, BWV.1051; I. (05:28)
10. II. Adagio ma non tanto (04:39)
11. III. Allegro (05:46)
12. Concerto pour trois clavecins en Re Mineur, BWV.1063; I. (04:37)
13. II. Alla siciliana (03:40)
14. III. Allegro (04:30)
Прoдолжительность: 00:58:31

Отчёт ЕАС:

Код:

Exact Audio Copy V0.99 prebeta 4 from 23. January 2008

EAC extraction logfile from 14. March 2011, 20:21

J.S. Bach / Concerts avec plusieurs instruments V (Cafe Zimmermann)

Used drive  : PLEXTOR DVDR   PX-755A   Adapter: 1  ID: 1

Read mode               : Secure
Utilize accurate stream : Yes
Defeat audio cache      : Yes
Make use of C2 pointers : No

Read offset correction                      : 30
Overread into Lead-In and Lead-Out          : No
Fill up missing offset samples with silence : Yes
Delete leading and trailing silent blocks   : No
Null samples used in CRC calculations       : Yes
Used interface                              : Installed external ASPI interface

Used output format : Internal WAV Routines
Sample format      : 44.100 Hz; 16 Bit; Stereo

TOC of the extracted CD

     Track |   Start  |  Length  | Start sector | End sector
    ---------------------------------------------------------
        1  |  0:00.00 |  9:33.61 |         0    |    43035
        2  |  9:33.61 |  3:32.09 |     43036    |    58944
        3  | 13:05.70 |  3:54.59 |     58945    |    76553
        4  | 17:00.54 |  1:06.48 |     76554    |    81551
        5  | 18:07.27 |  2:38.22 |     81552    |    93423
        6  | 20:45.49 |  3:06.01 |     93424    |   107374
        7  | 23:51.50 |  2:43.01 |    107375    |   119600
        8  | 26:34.51 |  3:17.26 |    119601    |   134401
        9  | 29:52.02 |  5:27.38 |    134402    |   158964
       10  | 35:19.40 |  4:38.53 |    158965    |   179867
       11  | 39:58.18 |  5:45.53 |    179868    |   205795
       12  | 45:43.71 |  4:36.60 |    205796    |   226555
       13  | 50:20.56 |  3:39.53 |    226556    |   243033
       14  | 54:00.34 |  4:29.70 |    243034    |   263278

Range status and errors

Selected range

     Filename Z:\NetLab\J.S. Bach - Concerts avec plusieurs instruments V (Cafe Zimmermann) (2011) {Alpha 168}\J.S. Bach - Concerts avec plusieurs instruments V (Cafe Zimmermann).wav

     Peak level 99.5 %
     Range quality 100.0 %
     Test CRC D67CDE49
     Copy CRC D67CDE49
     Copy OK

No errors occurred

AccurateRip summary

Track  1  accurately ripped (confidence 2)  [401BB3B7]
Track  2  accurately ripped (confidence 2)  [6C7C787E]
Track  3  accurately ripped (confidence 2)  [E260AC9D]
Track  4  accurately ripped (confidence 2)  [B2B53868]
Track  5  accurately ripped (confidence 2)  [5D07D210]
Track  6  accurately ripped (confidence 2)  [604AA98C]
Track  7  accurately ripped (confidence 2)  [D14BF6D4]
Track  8  accurately ripped (confidence 2)  [6C24C1CA]
Track  9  accurately ripped (confidence 2)  [40FC5AF9]
Track 10  accurately ripped (confidence 2)  [2EE547FF]
Track 11  accurately ripped (confidence 2)  [E320FC1F]
Track 12  accurately ripped (confidence 2)  [17CCDD36]
Track 13  accurately ripped (confidence 2)  [6997844B]
Track 14  accurately ripped (confidence 2)  [561E0F1F]

All tracks accurately ripped

End of status report

Содержание индексной карты (*.cue):

Код:

REM GENRE "Classical"
REM DATE 2011
REM DISCID B30DB60E
REM COMMENT "ExactAudioCopy v0.99pb4"
PERFORMER "J.S. Bach"
TITLE "Concerts avec plusieurs instruments V (Cafe Zimmermann)"
FILE "J.S. Bach - 2011 - Concerts avec plusieurs instruments V (Cafe Zimmermann).wv" WAVE
  TRACK 01 AUDIO
    TITLE "Ouverture No. 3 en Re Majeur, BWV 1068; I. Ouverture"
    PERFORMER "J.S. Bach"
    INDEX 01 00:00:00
  TRACK 02 AUDIO
    TITLE "II. Air"
    PERFORMER "J.S. Bach"
    INDEX 01 09:33:61
  TRACK 03 AUDIO
    TITLE "III. Gavottes I et II"
    PERFORMER "J.S. Bach"
    INDEX 01 13:05:70
  TRACK 04 AUDIO
    TITLE "IV. Bourree"
    PERFORMER "J.S. Bach"
    INDEX 01 17:00:54
  TRACK 05 AUDIO
    TITLE "V. Gigue"
    PERFORMER "J.S. Bach"
    INDEX 01 18:07:27
  TRACK 06 AUDIO
    TITLE "Concerto pour clavecin en Fa Mineur, BWV 1056; I. Allegro"
    PERFORMER "J.S. Bach"
    INDEX 00 20:40:13
    INDEX 01 20:45:49
  TRACK 07 AUDIO
    TITLE "II. Adagio"
    PERFORMER "J.S. Bach"
    INDEX 01 23:51:50
  TRACK 08 AUDIO
    TITLE "III. Presto"
    PERFORMER "J.S. Bach"
    INDEX 01 26:34:51
  TRACK 09 AUDIO
    TITLE "Concerto Brandebourgeois No. 6 en Si Bemol Majeur, BWV 1051; I."
    PERFORMER "J.S. Bach"
    INDEX 00 29:46:00
    INDEX 01 29:52:02
  TRACK 10 AUDIO
    TITLE "II. Adagio ma non tanto"
    PERFORMER "J.S. Bach"
    INDEX 01 35:19:40
  TRACK 11 AUDIO
    TITLE "III. Allegro"
    PERFORMER "J.S. Bach"
    INDEX 01 39:58:18
  TRACK 12 AUDIO
    TITLE "Concerto pour trois clavecins en Re Mineur, BWV 1063; I."
    PERFORMER "J.S. Bach"
    INDEX 00 45:39:29
    INDEX 01 45:43:71
  TRACK 13 AUDIO
    TITLE "II. Alla siciliana"
    PERFORMER "J.S. Bach"
    INDEX 01 50:20:56
  TRACK 14 AUDIO
    TITLE "III. Allegro"
    PERFORMER "J.S. Bach"
    INDEX 01 54:00:34

Отчёт auCDtect Task manager:

Код:

-----------------------

DON'T MODIFY THIS FILE

-----------------------

PERFORMER: auCDtect Task Manager, ver. 1.6.0 RC1 build 1.6.0.1
Copyright (c) 2008-2010 y-soft. All rights reserved
http://y-soft.org

ANALYZER: auCDtect: CD records authenticity detector, version 0.8.2
Copyright (c) 2004 Oleg Berngardt. All rights reserved.
Copyright (c) 2004 Alexander Djourik. All rights reserved.

FILE: J.S. Bach - 2011 - Concerts avec plusieurs instruments V (Cafe Zimmermann).wv
  Size: 315670538 Hash: 80DC036936B479637C59DAAC6CE51779 Accuracy: -m0
  Conclusion: CDDA 76%
  Signature: B19D649020195473383028BC2B4C5C3E3BF9C03B

CD6 - 2010-2011 Concerto BWV.1069, BWV.1055, BWV.1046, 1065


Треклист:
01. Ouverture No. 4 en Re Majeur, BWV 1069; I. Ouverture (11:12)
02. II. Bourree I & II (02:56)
03. III. Gavotte (01:46)
04. IV. Menuet I & II (03:21)
05. V. Rejouissance (02:37)
06. Concerto pour clavecin en La Majeur, BWV 1055; I. Allegro (04:03)
07. II. Larghetto (03:49)
08. III. Allegro ma non tanto (03:49)
09. Concert Brandebourgeois No. 1 en Fa Majeur, BWV 1046; I. (03:53)
10. II. Adagio (03:35)
11. III. Allegro (04:03)
12. IV. Menuet & Polonaise (05:47)
13. Concerto pour quatre clavecins en Re Mineur, BWV 1065; I. Allegro (03:26)
14. II. Adagio (02:09)
15. III. Allegro (03:08)
Продолжительность: 00:59:68

Отчёт ЕАС:

Код:

Exact Audio Copy V1.0 beta 2 from 29. April 2011

EAC extraction logfile from 21. December 2011, 22:34

Cafe Zimmermann / J.S. Bach - Concerts avec plusieurs instruments VI

Used drive  : PLEXTOR DVDR   PX-755A   Adapter: 1  ID: 1

Read mode               : Secure
Utilize accurate stream : Yes
Defeat audio cache      : Yes
Make use of C2 pointers : No

Read offset correction                      : 30
Overread into Lead-In and Lead-Out          : No
Fill up missing offset samples with silence : Yes
Delete leading and trailing silent blocks   : No
Null samples used in CRC calculations       : Yes
Used interface                              : Installed external ASPI interface

Used output format : Internal WAV Routines
Sample format      : 44.100 Hz; 16 Bit; Stereo

TOC of the extracted CD

     Track |   Start  |  Length  | Start sector | End sector
    ---------------------------------------------------------
        1  |  0:00.00 | 11:11.32 |         0    |    50356
        2  | 11:11.32 |  2:55.54 |     50357    |    63535
        3  | 14:07.11 |  1:45.46 |     63536    |    71456
        4  | 15:52.57 |  3:20.30 |     71457    |    86486
        5  | 19:13.12 |  2:36.52 |     86487    |    98238
        6  | 21:49.64 |  4:02.56 |     98239    |   116444
        7  | 25:52.45 |  3:48.44 |    116445    |   133588
        8  | 29:41.14 |  3:48.01 |    133589    |   150689
        9  | 33:29.15 |  3:52.26 |    150690    |   168115
       10  | 37:21.41 |  3:34.08 |    168116    |   184173
       11  | 40:55.49 |  4:02.54 |    184174    |   202377
       12  | 44:58.28 |  5:46.74 |    202378    |   228401
       13  | 50:45.27 |  3:25.08 |    228402    |   243784
       14  | 54:10.35 |  2:08.14 |    243785    |   253398
       15  | 56:18.49 |  3:07.67 |    253399    |   267490

Range status and errors

Selected range

     Filename Z:\NetLab\J.S. Bach - Concerts avec plusieurs instruments VI (Cafe Zimmermann) (2011) {Alpha 181}\J.S. Bach - Concerts avec plusieurs instruments VI.wav

     Peak level 100.0 %
     Extraction speed 2.1 X
     Range quality 100.0 %
     Test CRC 743C5F6D
     Copy CRC 743C5F6D
     Copy OK

No errors occurred

AccurateRip summary

Track  1  accurately ripped (confidence 1)  [2B8E879E]  (AR v1)
Track  2  accurately ripped (confidence 1)  [7E95C0CF]  (AR v1)
Track  3  accurately ripped (confidence 1)  [A9D9F658]  (AR v1)
Track  4  accurately ripped (confidence 1)  [582CBD3D]  (AR v1)
Track  5  cannot be verified as accurate (confidence 1)  [A4D842F3], AccurateRip returned [AA57E0E1]  (AR v2)
Track  6  accurately ripped (confidence 1)  [47EECD3F]  (AR v1)
Track  7  accurately ripped (confidence 1)  [BCAFDADD]  (AR v1)
Track  8  accurately ripped (confidence 1)  [FA80B2EC]  (AR v1)
Track  9  accurately ripped (confidence 1)  [4784C852]  (AR v1)
Track 10  accurately ripped (confidence 1)  [1A05CEFA]  (AR v1)
Track 11  accurately ripped (confidence 1)  [36C03F59]  (AR v1)
Track 12  accurately ripped (confidence 1)  [F430FC66]  (AR v1)
Track 13  accurately ripped (confidence 1)  [CCF0398A]  (AR v1)
Track 14  accurately ripped (confidence 1)  [E5023F06]  (AR v1)
Track 15  accurately ripped (confidence 1)  [7C6DC37A]  (AR v1)

14 track(s) accurately ripped
 1 track(s) could not be verified as accurate

Some tracks could not be verified as accurate

End of status report

==== Log checksum 1DAA3F3377B96B91719459B179DC14880A2370A19F86769D72BB555B350DA944 ====

Содержание индексной карты (*.cue):

Код:

REM GENRE "Classical"
REM DATE 2011
REM DISCID BF0DEE0F
REM COMMENT "ExactAudioCopy v1.0b2"
PERFORMER "Cafe Zimmermann"
TITLE "J.S. Bach - Concerts avec plusieurs instruments VI"
FILE "Cafe Zimmermann - J.S. Bach - Concerts avec plusieurs instruments VI.wv" WAVE
  TRACK 01 AUDIO
    TITLE "Ouverture No. 4 en Re Majeur, BWV 1069; I. Ouverture"
    PERFORMER "Cafe Zimmermann"
    INDEX 01 00:00:00
  TRACK 02 AUDIO
    TITLE "II. Bourree I & II"
    PERFORMER "Cafe Zimmermann"
    INDEX 01 11:11:32
  TRACK 03 AUDIO
    TITLE "III. Gavotte"
    PERFORMER "Cafe Zimmermann"
    INDEX 01 14:07:11
  TRACK 04 AUDIO
    TITLE "IV. Menuet I & II"
    PERFORMER "Cafe Zimmermann"
    INDEX 01 15:52:57
  TRACK 05 AUDIO
    TITLE "V. Rejouissance"
    PERFORMER "Cafe Zimmermann"
    INDEX 01 19:13:12
  TRACK 06 AUDIO
    TITLE "Concerto pour clavecin en La Majeur, BWV 1055; I. Allegro"
    PERFORMER "Cafe Zimmermann"
    INDEX 00 21:43:49
    INDEX 01 21:49:64
  TRACK 07 AUDIO
    TITLE "II. Larghetto"
    PERFORMER "Cafe Zimmermann"
    INDEX 01 25:52:45
  TRACK 08 AUDIO
    TITLE "III. Allegro ma non tanto"
    PERFORMER "Cafe Zimmermann"
    INDEX 01 29:41:14
  TRACK 09 AUDIO
    TITLE "Concert Brandebourgeois No. 1 en Fa Majeur, BWV 1046; I."
    PERFORMER "Cafe Zimmermann"
    INDEX 00 33:25:44
    INDEX 01 33:29:15
  TRACK 10 AUDIO
    TITLE "II. Adagio"
    PERFORMER "Cafe Zimmermann"
    INDEX 01 37:21:41
  TRACK 11 AUDIO
    TITLE "III. Allegro"
    PERFORMER "Cafe Zimmermann"
    INDEX 01 40:55:49
  TRACK 12 AUDIO
    TITLE "IV. Menuet & Polonaise"
    PERFORMER "Cafe Zimmermann"
    INDEX 01 44:58:28
  TRACK 13 AUDIO
    TITLE "Concerto pour quatre clavecins en Re Mineur, BWV 1065; I. Allegro"
    PERFORMER "Cafe Zimmermann"
    INDEX 00 50:39:44
    INDEX 01 50:45:27
  TRACK 14 AUDIO
    TITLE "II. Adagio"
    PERFORMER "Cafe Zimmermann"
    INDEX 01 54:10:35
  TRACK 15 AUDIO
    TITLE "III. Allegro"
    PERFORMER "Cafe Zimmermann"
    INDEX 01 56:18:49

Отчёт auCDtect Task manager:

Код:

-----------------------

DON'T MODIFY THIS FILE

-----------------------

PERFORMER: auCDtect Task Manager, ver. 1.6.0 RC1 build 1.6.0.1
Copyright (c) 2008-2010 y-soft. All rights reserved
http://y-soft.org

ANALYZER: auCDtect: CD records authenticity detector, version 0.8.2
Copyright (c) 2004 Oleg Berngardt. All rights reserved.
Copyright (c) 2004 Alexander Djourik. All rights reserved.

FILE: Cafe Zimmermann - J.S. Bach - Concerts avec plusieurs instruments VI.wv
  Size: 323995926 Hash: A737E64402D5E3F6944CAA49D27AC035 Accuracy: -m0
  Conclusion: CDDA 58%
  Signature: CAD11C08FF886EE32D60F7727C300EB003EB8116

Дополнительная информация:

Описание:
Французский ансамбль старинной музыки, основан в 1998 году, во Франции (France). Скрипачем и концертмейстером Пабло Валетти, аргентинцем по происхождению, и французской исполнительницей на клавесине - Селин Фриш.

Другие участники это Nick Robinson, violin; Patricia Gagnon, alto; Petr Skalka, cello; и Ludek Brany, double bass. Свое название группа ведет от знаменитой кофейни господина Gottfried Zimmermann, которая располагалась в Лейпциге.

То, что сегодня предлагает нам французская звукозаписывающая компания “Alpha”, не просто коллекционный продукт ручной работы, оберегающий от услуг аудиопиратов, но и особый способ погружения в музыку c помощью живописи. Основная серия альбомов “Alpha” так и называется “Ut pictura musica”.

На обложке виден лишь фрагмент полотна, чтобы его лицезреть полностью, надо вскрыть упаковку и развернуть альбом. В буклете – обязательно аннотация картины со всеми историческими контекстами. И, конечно, все вести и подробности о музыкальных произведениях. Изящный кинематографический приём крупного плана акцентирует внимание на деталях подобно тому, как качество исполнения и записи – на звуковых нюансах. Сама по себе идея сопряжения музыки и живописи в оформлении не нова, но в данном случае она явно глубже простой иллюстрации.
Циммерманн открывает повсюду свои кофейни в XVIII веке. Они становятся парадоксальной метафорой Века Просвещения. Там звучит и музыка Иоганна Себастьяна Баха, исполняемая сообществами музыкантов-любителей для слушателей-ценителей. А в начале нынешнего столетия создаётся ансамбль виртуозов-интеллектуалов, в названии которого уже заложен конкретный вкус эпохи. Как-то быстро проскочили эти 5 лет между первым и последним альбомами Cafe Zimmermann. Вероятно, потому, что новизна впечатлений от исполнения не проходит. Скорее наоборот, чем дальше, тем больше создаётся ощущение того особого вкуса, в его органолептическом смысле. Изящная стать «Шоколадницы» Готье, прицельно рассмотренная на обложке – визуальное воплощение интерпретации ансамбля, в котором крупный звуковой план многое позволяет расслышать. Нас словно погружают в самое нутро музыкального текста, и мы вдруг слышим, например, как в ре минорном концерте для клавесина контрабас творит джазовые чудеса, расшифровывая тайный цифровой код континуо, а струнные подобны величавым грациям. Тихий на их фоне клавесин (что у многих профессиональных музыкантов вызвало изумление) – словно внутренний интимный порыв героя. Другое дело (и время), Карл Филипп. Порыв его «героя» превращается в гедонистический угар, в котором страсть уже пустилась в пляс, предвосхищая эпоху «Бури и натиска». Об этом рассказывают и сама музыка симфоний Баха-сына, и их исполнение ансамблем, в котором закручиваются виртуозные вихри, контрастирующие с запредельной сентиментальностью медленной части виолончельного концерта, и, наконец, «устричная трапеза» с соответствующими plaisirs. Cafe Zimmermann чутко улавливает эпоху и стиль. Бах-отец остаётся в их исполнении, прежде всего мистиком. В интерпретации музыки Иоганна Себастьяна каждая деталь не является мелочью, а служит знаком таинственного озарения автора. В провокационном «разбойничьем», даже временами подчёркнуто простецком прочтении Баха-сына – вакханалия чувств, вполне в духе галантного века, со всем богатством их гаммы. Утончённое барочное кофепитие сменяется галантным пожиранием устриц. Меняются времена и нравы, остаётся музыка с её неповторимым вкусом. Cafe Zimmermann уж очень сильно возбуждает аппетит, в этом «заведении» музыку хочется есть. И много.

YouTube


 Поглощение/вытеснение 
Только с согласия релизера

gvm55

Детали торрента:
Название:Johann Sebastian Bach - Cafe Zimmermann vol. I-VI, autentic, 6CD (2001-2011) [WavPack|ISO.wv]<Classical>
Дата добавления:22 Июн 2015 21:01:13
Размер:3,26 GB
Раздают:5
Качают:0
Форум:Оркестровая (Lossless)

All rights reserved © 2015-2018