TORRENTS45.XYZ

Скачать 8 новых свиданий (2015) DVD5


8 новых свиданий (2015) DVD5
Производство: Россия / Горад
Жанр: Комедия

Режиссер: Марюс Вайсберг
Продюсеры: Екатерина Гордецкая, Андрей Радько, Михаил Галустян
Актеры: Оксана Акиньшина, Владимир Зеленский, Михаил Галустян, Полина Максимова, Виктор Васильев, Сабина Ахмедова, Евгений Кошевой, Сергей Беляев, Наталья Унгард, Наталья Иохвидова

Описание:
Вера и Никита женаты 3 года. В разгар очередной радостной ссоры они обмениваются категоричными мнениями о том, какими должны быть «нормальный муж» и «хорошая жена». И на следующее утро… каждый просыпается с «идеальной половинкой». У Никиты жена-блондинка с третьим размером, которая хорошо готовит; у Веры заботливый муж-бизнесмен, сам покупающий к завтраку ее любимые круасаны. С кем жить лучше, с любимым или идеальным? Будьте осторожны с желаниями — иногда они сбываются!


Дата мировой премьеры: 1 января 2015
Дата российской премьеры: 1 января 2015, «Централ Партнершип»
Дата выхода DVD релиза: 3 марта 2015, «Lizard Cinema Trade»

Продолжительность: 01:20:56
Качество видео: DVD5

Перевод: Не требуется (русский) лицензия
Субтитры: Отсутствуют

Видео: MPEG-2, 720x576@1024x576 (PAL 16:9), ~6085 Кбит/сек
Аудио 1: AC3 5.1, 448 Кбит/сек
Аудио 2: DTS 5.1, 755 Кбит/сек

DVDInfo:

Title: 8 новых свиданий (2015) DVD5
Size: 4.35 Gb ( 4 564 030,00 KBytes ) - DVD-5
Enabled regions: 1, 2, 3, 4, 5, 6, 7, 8

VTS_01 :
Play Length: 00:00:00
Video: PAL 16:9 (720x576) VBR, Auto Pan&Scan, Auto Letterboxed
Audio:
Russian (Dolby AC3, 6 ch)

VTS_02 :
Play Length: 01:20:56
Video: PAL 16:9 (720x576) VBR, Auto Pan&Scan, Auto Letterboxed
Audio:
Russian (Dolby AC3, 6 ch)
Russian (DTS, 6 ch)

* Menus Information *

VIDEO_TS Menu
Video:
NTSC 4:3 (720x480) VBR
Auto Pan&Scan, Auto Letterboxed
English Language Unit :
Title Menu

VTS_01 Menu
Video:
PAL 16:9 (720x576) VBR
Auto Letterboxed
Audio:
Not specified (Dolby AC3, 2 ch)
English Language Unit :
Root Menu
Chapter (PTT) Menu

VTS_02 Menu
Video:
NTSC 4:3 (720x480) VBR
Auto Pan&Scan, Auto Letterboxed
English Language Unit :
Root Menu
Audio Menu
Chapter (PTT) Menu

MediaInfo:

Общее
Полное имя : G:\Видео\8 новых свиданий (2015) DVD5\VIDEO_TS\VTS_02_1.VOB
Формат : MPEG-PS
Размер файла : 1024 Мбайт
Продолжительность : 19 м.
Режим общего битрейта : Переменный
Общий поток : 7435 Кбит/сек

Видео
Идентификатор : 224 (0xE0)
Формат : MPEG Video
Версия формата : Version 2
Профиль формата : Main@Main
Параметр BVOP формата : Да
Параметр матрицы формата : Выборочная
Параметр GOP формата : Variable
Продолжительность : 19 м.
Вид битрейта : Переменный
Битрейт : 6085 Кбит/сек
Максимальный битрейт : 8000 Кбит/сек
Ширина : 720 пикселей
Высота : 576 пикселей
Соотношение сторон : 16:9
Частота кадров : 25,000 кадров/сек
Стандарт вещания : PAL
Цветовое пространство : YUV
Субдискретизация насыщенности : 4:2:0
Битовая глубина : 8 бит
Тип развёртки : Прогрессивная
Метод сжатия : С потерями
Бит/(Пиксели*Кадры) : 0.587
Временной код первого кадра : 00:00:00:00
Оригинал временного кода : Group of pictures header
GOP, открыто/закрыто : Открыто
GOP, открыто/закрыто на первом кадре : Закрыто
Размер потока : 838 Мбайт (82%)

Аудио #1
Идентификатор : 189 (0xBD)-128 (0x80)
Формат : AC-3
Формат/Информация : Audio Coding 3
Расширение режима : CM (complete main)
Параметр Endianness формата : Big
Режим смешивания : DVD-Video
Продолжительность : 19 м.
Вид битрейта : Постоянный
Битрейт : 448 Кбит/сек
Каналы : 6 каналов
Расположение каналов : Front: L C R, Side: L R, LFE
Частота : 48,0 КГц
Битовая глубина : 16 бит
Метод сжатия : С потерями
Размер потока : 61,7 Мбайт (6%)

Аудио #2
Идентификатор : 189 (0xBD)-137 (0x89)
Формат : DTS
Формат/Информация : Digital Theater Systems
Режим : 16
Параметр Endianness формата : Big
Режим смешивания : DVD-Video
Продолжительность : 19 м.
Вид битрейта : Постоянный
Битрейт : 755 Кбит/сек
Каналы : 6 каналов
Расположение каналов : Front: L C R, Side: L R, LFE
Частота : 48,0 КГц
Битовая глубина : 24 бит
Метод сжатия : С потерями
Размер потока : 104 Мбайт (10%)

Меню

Доп. информация:

Видео диска не сжималось!
Исходник: 8 новых свиданий (2015) DVD9
Удалены: предупреждающие надписи.
Меню: главное меню и меню выбора звуковых дорожек анимированное. Меню выбора эпизода сделал статичным.
Использовалась программа DVD ReMake Pro.

Скриншоты меню:

Скриншоты:

Смотреть Online

http://37.220.36.15/video/55b265bf2a0ee9c4/iframe
Детали торрента:
Название:8 новых свиданий (2015) DVD5
Дата добавления:12 Июн 2015 14:21:02
Размер:4,35 GB
Раздают:
Качают:0
Форум:Отечественные Фильмы (DVD)

All rights reserved © 2015-2018