TORRENTS45.XYZ

Скачать Холостяк. Сезон №3. Выпуск 7 (2015.04.18) SATRip


Холостяк. Сезон №3. Выпуск 7 (2015.04.18) SATRip
Телекомпания: ТНТ
Жанр: Реалити Шоу
Выпущено: Россия

Описание:
7 МАРТА В 21.30 ТНТ НАЧНЕТ ЖЕНИТЬ ПОСЛЕДНЕГО ХОЛОСТЯКА COMEDY CLUB – ТИМУРА БАТРУТДИНОВА. В новом сезоне шоу «Холостяк» девушкам предстоит превзойти самих себя, чтобы добиться внимания звездного героя. На что они готовы пойти ради любви самого завидного жениха страны? Создатели шоу приготовили для претенденток огонь, воду и медные трубы. Девушкам придется плавать на яхте в шторм, прыгать с высоченной скалы и летать на параплане среди облаков. В награду – путешествие в зимнюю сказку посреди лета, вечер на берегу моря с симфоническим оркестром, свидание на необитаемом острове и, конечно, заветные красные розы. А еще в этом сезоне зрителей и участниц ждут моменты, в которых слезы польются рекой… от смеха. Гонки на ослах в коротких юбках, на каблуках и с красивыми прическами оценили бы даже на основной работе Холостяка – в шоу Comedy Club.

Продолжительность: ~ 01:10:39
Качество видео: SATRip

Видеокодек: XVID
Битрейт видео: ~1800 kb/s
Размер кадра: 720 x 400
Аудиокодек: MP3, 2ch.
Битрейт аудио: 128 kb/s

Mediainfo:

Код:

Формат                                   : AVI
Формат/Информация                        : Audio Video Interleave
Размер файла                             : 981 Мбайт
Продолжительность                        : 1 ч. 10 м.
Общий поток                              : 1941 Кбит/сек

Видео
Идентификатор                            : 0
Формат                                   : MPEG-4 Visual
Профиль формата                          : Advanced Simple@L5
Параметр BVOP формата                    : 2
Параметр QPel формата                    : Нет
Параметр GMC формата                     : Без точки перехода
Параметр матрицы формата                 : Default (H.263)
Идентификатор кодека                     : XVID
Идентификатор кодека/Подсказка           : XviD
Продолжительность                        : 1 ч. 10 м.
Битрейт                                  : 1800 Кбит/сек
Ширина                                   : 720 пикселей
Высота                                   : 400 пикселей
Соотношение сторон                       : 16:9
Частота кадров                           : 25,000 кадров/сек
Цветовое пространство                    : YUV
Субдискретизация насыщенности            : 4:2:0
Битовая глубина                          : 8 бит
Тип развёртки                            : Прогрессивная
Метод сжатия                             : С потерями
Бит/(Пиксели*Кадры)                      : 0.250
Размер потока                            : 910 Мбайт (93%)
Библиотека кодирования                   : XviD 1.2.1 (UTC 2008-12-04)

Аудио
Идентификатор                            : 1
Формат                                   : MPEG Audio
Версия формата                           : Version 1
Профиль формата                          : Layer 3
Режим                                    : Joint stereo
Расширение режима                        : MS Stereo
Идентификатор кодека                     : 55
Идентификатор кодека/Подсказка           : MP3
Продолжительность                        : 1 ч. 10 м.
Вид битрейта                             : Постоянный
Битрейт                                  : 128 Кбит/сек
Каналы                                   : 2 канала
Частота                                  : 48,0 КГц
Метод сжатия                             : С потерями
Размер потока                            : 64,7 Мбайт (7%)
Выравнивание                             : Соединение по промежуткам
Продолжительность промежутка             : 24  мс. (0,60 видеокадр)
Библиотека кодирования                   : LAME3.99r
Настройки программы                      : -m j -V 4 -q 9 -lowpass 17 -b 128
 
Скриншоты:
Детали торрента:
Название:Холостяк. Сезон №3. Выпуск 7 (2015.04.18) SATRip
Дата добавления:18 Апр 2015 16:39:34
Размер:981 MB
Раздают:
Качают:0
Форум:Телешоу

All rights reserved © 2015-2019