TORRENTS45.XYZ

Скачать Mahler - 10 Symphonien - Abbado (1976-1994) 14 SHM-CDs /2011, Deutsche Grammophon, Universal Music/ [FLAC|Lossless]<Classical, Romantic>


Mahler - 10 Symphonien - Abbado (1976-1994)
Год: 1976-1994
Жанр: Classical, Romantic
Страна: Austria-Hungary, Italy, Germany, US
Released: 2011/ Japan
Label: DG, Universal Music
Продолжительность: 12:17:14

Аудио кодек: FLAC
Битрейт: Lossless
Тип рипа: image + .cue
Scans: в раздаче
Источник-релизер: mrrezes

Описание:

  • Composed By – Gustav Mahler (1860-1911)
  • Conductor – Claudio Abbado (1933-2014)
  • Orchestra – Berliner Philharmoniker, Chicago Symphony Orchestra, Wiener Philharmoniker

Треклист:

1982 - Symphonie No.1 - Chicago Symphony Orchestra/ Abbado


Symphonie No.1 - Chicago Symphony Orchestra/ Abbado
Год: 1982
Catalog#: UCCG-4471
Продолжительноcть: 00:54:17
Треклиcт:
Symphonie No.1 In D

01. Langsam. Schleppend: Wie ein Naturlaut - Im Anfang sehr gemachlich (16:20)
02. Kraftig bewegt, doch nicht zu schnell - Trio. Recht gemachlich (7:17)
03. Feierlich und gemessen, ohne zu schleppen (10:55)
04. Sturmisch bewegt (19:45)

Отчёт ЕАС:

Код:

Exact Audio Copy V1.0 beta 3 from 29. August 2011

EAC 抓取日志文件从23. 一月 2012, 14:04

Claudio Abbado & Chicago Symphony Orchestra / Mahler : Symphony No.1

使用驱动器  :PLEXTOR CD-R   PX-W4012A   Adapter: 1  ID: 0

读取模式      : 可靠Secure
使用精确流     : 是
清空音频缓存    : 是
使用 C2 指示器 : 否

读取偏移校正:               : 98
读取 Lead-In 和 Lead-Out : 是
用静音填充抓取中丢失偏移的采样       : 是
去除首尾静音块               : 否
 在CRC 计算中使用了空样本       : 是
已用接口                  : Win NT 及 2000 本地 Win32 接口

所用输出模式:   : 用户定义的编码器
已选比特率     : 768 kBit/s
质量        : 高
添加 ID3 标签 : 是
命令行压缩器    : C:\Program Files\Exact Audio Copy\FLAC\FLAC.EXE
附加命令行参数:  : -6 -V -T "ARTIST=%artist%" -T "TITLE=%title%" -T "ALBUM=%albumtitle%" -T "DATE=%year%" -T "TRACKNUMBER=%tracknr%" -T "GENRE=%genre%" -T "COMMENT=%comment%" -T "BAND=%albuminterpret%" -T "ALBUMARTIST=%albuminterpret%" -T "COMPOSER=%composer%" %haslyrics%--tag-from-file=LYRICS="%lyricsfile%"%haslyrics% -T "DISCNUMBER=%cdnumber%" -T "TOTALDISCS=%totalcds%" -T "TOTALTRACKS=%numtracks%" %hascover%--picture="%coverfile%"%hascover% %source% -o %dest%

已抓取 CD 的 TOC

     音轨 |    起始    |    长度    |  起始扇区  |  结束扇区
    --------------------------------------------
      1 |  0:00.37 | 16:20.23 |     37 |  73559
      2 | 16:20.60 |  7:16.47 |  73560 | 106306
      3 | 23:37.32 | 10:55.05 | 106307 | 155436
      4 | 34:32.37 | 19:44.60 | 155437 | 244296

范围状态及错误

已选择范围

     文件名 D:\ahhfwww Classical\Claudio Abbado & Chicago Symphony Orchestra - Mahler - Symphony No.1.wav

     峰值电平 100.0 %
     抓取速度 12.5 X
     范围质量 100.0 %
     复制 CRC 89364E90
     复制成功

没有错误发生

AccurateRip 摘要

音轨  1  在数据库中不存在
音轨  2  在数据库中不存在
音轨  3  在数据库中不存在
音轨  4  在数据库中不存在

没有任何音轨在 AccurateRip 数据库中有记录

状态报告结尾

==== 记录校验日志 8B2ED5C194DB936FA1E3C4CF8E180A981007DD61E2BF667DEC7168DF10EBCBFE ====

Отчёт auCDtect Task manager:

Код:

-----------------------

DON'T MODIFY THIS FILE

-----------------------

PERFORMER: auCDtect Task Manager, ver. 1.6.0 RC1 build 1.6.0.1
Copyright (c) 2008-2010 y-soft. All rights reserved
http://y-soft.org

ANALYZER: auCDtect: CD records authenticity detector, version 0.8.2
Copyright (c) 2004 Oleg Berngardt. All rights reserved.
Copyright (c) 2004 Alexander Djourik. All rights reserved.

FILE: Abbado - Mahler Sym 1.flac
  Size: 210108200 Hash: 25F553E619E9FE35291221E199C62461 Accuracy: -m0
  Conclusion: CDDA 99%
  Signature: 2D4CAF7B15C193F109E36FF4D8CCE07D9E29C449

1976 - Symphonie No.2 - Chicago Symphony Orchestra/ Abbado (2 CD)


CD1:

Symphonie No.2 - Chicago Symphony Orchestra/ Abbado
Год: 1976
Catalog#: UCCG-4472/3
Продолжительноcть: 00:41:21
Треклиcт:
Symphonie No.2 In C Minor - "Auferstehungs-Symphonie"
1: Allegro Maestoso (Totenfeier)


01. 1/1 - Allegro maestoso (5:37)
02. 1/2 - Sehr mafig und zuruckhaltend (5:37)
03. 1/3 - Sehr langsam beginnend (9:32)
04. 2 - Andante moderato (10:01)
05. 3 - Scherzo (10:33)

Отчёт ЕАС:

Код:

Exact Audio Copy V1.0 beta 3 from 29. August 2011

EAC 抓取日志文件从23. 一月 2012, 12:29

Chicago Symphony Orchestra / Gustav Mahler - Symphonie No. 2

使用驱动器  :PLEXTOR CD-R   PX-W4012A   Adapter: 1  ID: 0

读取模式      : 可靠Secure
使用精确流     : 是
清空音频缓存    : 是
使用 C2 指示器 : 否

读取偏移校正:               : 98
读取 Lead-In 和 Lead-Out : 是
用静音填充抓取中丢失偏移的采样       : 是
去除首尾静音块               : 否
 在CRC 计算中使用了空样本       : 是
已用接口                  : Win NT 及 2000 本地 Win32 接口

所用输出模式:   : 用户定义的编码器
已选比特率     : 768 kBit/s
质量        : 高
添加 ID3 标签 : 是
命令行压缩器    : C:\Program Files\Exact Audio Copy\FLAC\FLAC.EXE
附加命令行参数:  : -6 -V -T "ARTIST=%artist%" -T "TITLE=%title%" -T "ALBUM=%albumtitle%" -T "DATE=%year%" -T "TRACKNUMBER=%tracknr%" -T "GENRE=%genre%" -T "COMMENT=%comment%" -T "BAND=%albuminterpret%" -T "ALBUMARTIST=%albuminterpret%" -T "COMPOSER=%composer%" %haslyrics%--tag-from-file=LYRICS="%lyricsfile%"%haslyrics% -T "DISCNUMBER=%cdnumber%" -T "TOTALDISCS=%totalcds%" -T "TOTALTRACKS=%numtracks%" %hascover%--picture="%coverfile%"%hascover% %source% -o %dest%

已抓取 CD 的 TOC

     音轨 |    起始    |    长度    |  起始扇区  |  结束扇区
    --------------------------------------------
      1 |  0:00.00 |  5:37.00 |      0 |  25274
      2 |  5:37.00 |  5:37.16 |  25275 |  50565
      3 | 11:14.16 |  9:32.20 |  50566 |  93485
      4 | 20:46.36 | 10:01.04 |  93486 | 138564
      5 | 30:47.40 | 10:33.35 | 138565 | 186074

范围状态及错误

已选择范围

     文件名 D:\ahhfwww Classical\Chicago Symphony Orchestra - Gustav Mahler - Symphonie No. 2.wav

     峰值电平 98.6 %
     抓取速度 11.7 X
     范围质量 99.9 %
     复制 CRC 05689840
     复制成功

没有错误发生

AccurateRip 摘要

音轨  1  在数据库中不存在
音轨  2  在数据库中不存在
音轨  3  在数据库中不存在
音轨  4  在数据库中不存在
音轨  5  在数据库中不存在

没有任何音轨在 AccurateRip 数据库中有记录

状态报告结尾

==== 记录校验日志 D92337A3F9A1BFFB2FFF96D9FBA92AC2BA97E832F3CA8A8CA88353C3B2CD257A ====

Отчёт auCDtect Task manager:

Код:

-----------------------

DON'T MODIFY THIS FILE

-----------------------

PERFORMER: auCDtect Task Manager, ver. 1.6.0 RC1 build 1.6.0.1
Copyright (c) 2008-2010 y-soft. All rights reserved
http://y-soft.org

ANALYZER: auCDtect: CD records authenticity detector, version 0.8.2
Copyright (c) 2004 Oleg Berngardt. All rights reserved.
Copyright (c) 2004 Alexander Djourik. All rights reserved.

FILE: Abbado - Mahler Sym 2, CD1.flac
  Size: 160005901 Hash: 0BF8C1EE9F62CC470A140E03982ACD75 Accuracy: -m0
  Conclusion: CDDA 100%
  Signature: 454600664ABF52F07E49D355D70DD2D0D339D800

CD2


Symphonie No.2 - Chicago Symphony Orchestra/ Abbado
Год: 1976
Catalog#: UCCG-4472/3
Продолжительноcть: 00:39:37
Треклиcт:
Symphonie No.2 In C Minor - "Auferstehungs-Symphonie"
2: Andante Moderato


01. 4 - 'Urlicht' Sehr feierlich, aber schlicht ('O R.schen rot!') (5:09)
02. 5/1 - Im Tempo des Scherzos. Wild herausfahrend (1:40)
03. 5/2 - Langsam (3:55)
04. 5/3 - Im Anfang sehr zuruckgehalten (1:17)
05. 5/4 - Wieder sehr breit (3:02)
06. 5/5 - Maestoso. Sehr zuruckhaltend (4:21)
07. 5/6 - Wieder zuruckhaltend (2:17)
08. 5/7 - Langsam. Immer noch mehr zuruckhaltend (1:25)
09. 5/8 - Sehr langsam und gedehnt (2:30)
10. 5/9 - Langsam. Misterioso ('Aufersteh'n, ja aufersteh'n wirst du') (6:52)
11. 5/10 - Etwas bewegter ('O glaube, mein Herz, o glaube') (1:33)
12. 5/11 - Wieder etwas zuruckhaltend ('Was entstanden ist, das muss vergehen!') (5:36)

Отчёт ЕАС:

Код:

Exact Audio Copy V1.0 beta 3 from 29. August 2011

EAC 抓取日志文件从23. 一月 2012, 12:36

Gustav Mahler / Symphonie Nr. 2 Auferstehung (Horne, Neblett, Chicago SO, Abbado

使用驱动器  :PLEXTOR CD-R   PX-W4012A   Adapter: 1  ID: 0

读取模式      : 可靠Secure
使用精确流     : 是
清空音频缓存    : 是
使用 C2 指示器 : 否

读取偏移校正:               : 98
读取 Lead-In 和 Lead-Out : 是
用静音填充抓取中丢失偏移的采样       : 是
去除首尾静音块               : 否
 在CRC 计算中使用了空样本       : 是
已用接口                  : Win NT 及 2000 本地 Win32 接口

所用输出模式:   : 用户定义的编码器
已选比特率     : 768 kBit/s
质量        : 高
添加 ID3 标签 : 是
命令行压缩器    : C:\Program Files\Exact Audio Copy\FLAC\FLAC.EXE
附加命令行参数:  : -6 -V -T "ARTIST=%artist%" -T "TITLE=%title%" -T "ALBUM=%albumtitle%" -T "DATE=%year%" -T "TRACKNUMBER=%tracknr%" -T "GENRE=%genre%" -T "COMMENT=%comment%" -T "BAND=%albuminterpret%" -T "ALBUMARTIST=%albuminterpret%" -T "COMPOSER=%composer%" %haslyrics%--tag-from-file=LYRICS="%lyricsfile%"%haslyrics% -T "DISCNUMBER=%cdnumber%" -T "TOTALDISCS=%totalcds%" -T "TOTALTRACKS=%numtracks%" %hascover%--picture="%coverfile%"%hascover% %source% -o %dest%

已抓取 CD 的 TOC

     音轨 |    起始    |    长度    |  起始扇区  |  结束扇区
    --------------------------------------------
      1 |  0:00.00 |  5:08.52 |      0 |  23151
      2 |  5:08.52 |  1:40.09 |  23152 |  30660
      3 |  6:48.61 |  3:54.74 |  30661 |  48284
      4 | 10:43.60 |  1:17.02 |  48285 |  54061
      5 | 12:00.62 |  3:02.34 |  54062 |  67745
      6 | 15:03.21 |  4:21.29 |  67746 |  87349
      7 | 19:24.50 |  2:16.62 |  87350 |  97611
      8 | 21:41.37 |  1:24.54 |  97612 | 103965
      9 | 23:06.16 |  2:30.01 | 103966 | 115216
     10 | 25:36.17 |  6:51.71 | 115217 | 146112
     11 | 32:28.13 |  1:32.66 | 146113 | 153078
     12 | 34:01.04 |  5:35.71 | 153079 | 178274

范围状态及错误

已选择范围

     文件名 D:\ahhfwww Classical\Gustav Mahler - Symphonie Nr. 2 Auferstehung (Horne, Neblett, Chicago SO, Abbado.wav

     峰值电平 98.5 %
     抓取速度 11.8 X
     范围质量 100.0 %
     复制 CRC A4D88124
     复制成功

没有错误发生

AccurateRip 摘要

音轨  1  在数据库中不存在
音轨  2  在数据库中不存在
音轨  3  在数据库中不存在
音轨  4  在数据库中不存在
音轨  5  在数据库中不存在
音轨  6  在数据库中不存在
音轨  7  在数据库中不存在
音轨  8  在数据库中不存在
音轨  9  在数据库中不存在
音轨 10  在数据库中不存在
音轨 11  在数据库中不存在
音轨 12  在数据库中不存在

没有任何音轨在 AccurateRip 数据库中有记录

状态报告结尾

==== 记录校验日志 BBBA33219D97458F5C400DDE8C1025E397682799B056178D182B4386FC79B46D ====

Отчёт auCDtect Task manager:

Код:

-----------------------

DON'T MODIFY THIS FILE

-----------------------

PERFORMER: auCDtect Task Manager, ver. 1.6.0 RC1 build 1.6.0.1
Copyright (c) 2008-2010 y-soft. All rights reserved
http://y-soft.org

ANALYZER: auCDtect: CD records authenticity detector, version 0.8.2
Copyright (c) 2004 Oleg Berngardt. All rights reserved.
Copyright (c) 2004 Alexander Djourik. All rights reserved.

FILE: Abbado - Mahler Sym 2, CD2.flac
  Size: 152042104 Hash: 63235D617D071C8970ED9352CF79DBD3 Accuracy: -m0
  Conclusion: CDDA 99%
  Signature: DD35AA74D8EED13A33228C17B5A8DE61D6EE8FB1

1980 - Symphonie No.3 - Norman/ Wiener Philharmoniker/ Abbado (2 CD)


CD1:

Symphonie No. 3 - Norman/ Wiener Philharmoniker/ Abbado
Год: 1980
Catalog#: UCCG-4474/5
Продолжительноcть: 01:00:52
Треклиcт:
Symphonie No. 3 In D Minor
Erste Abteilung


01. 1/1(Part-1) - Kraeftig. Entschieden (7:02)
02. 1/2(Part-1) - Langsam. Schwer (2:40)
03. 1/3(Part-1) - Tempo I (5:03)
04. 1/4(Part-1) - a tempo (6:09)
05. 1/5(Part-1) - Immer dasselbe Tempo (Marsch) (3:16)
06. 1/6(Part-1) - (Allegro moderato) (5:10)
07. 1/7(Part-1) - Tempo I (5:06)
Zweite Abteilung
08. 2/1(Part-2) - Tempo di Menuetto. Sehr maessig (3:05)
09. 2/2(Part-2) - a tempo (3:32)
10. 2/3(Part-2) - Ganz ploetzlich gemaechlich. Tempo di Menuetto (2:51)
11. 3/1(Part-2) - Comodo. Scherzando. Ohne Hast (2:34)
12. 3/2(Part-2) - Wieder sehr gemaechlich, wie zu Anfang (3:05)
13. 3/3(Part-2) - Sehr gemaechlich (Posthorn) (4:28)
14. 3/4(Part-2) - Tempo I (2:59)
15. 3/5(Part-2) - Wieder sehr gemaechlich, beinahe langsam (3:51)

Отчёт ЕАС:

Код:

Exact Audio Copy V1.0 beta 3 from 29. August 2011

EAC 抓取日志文件从23. 一月 2012, 12:59

Claudio Abbado / Mahler Symphony No.3 , Cd 01

使用驱动器  :PLEXTOR CD-R   PX-W4012A   Adapter: 1  ID: 0

读取模式      : 可靠Secure
使用精确流     : 是
清空音频缓存    : 是
使用 C2 指示器 : 否

读取偏移校正:               : 98
读取 Lead-In 和 Lead-Out : 是
用静音填充抓取中丢失偏移的采样       : 是
去除首尾静音块               : 否
 在CRC 计算中使用了空样本       : 是
已用接口                  : Win NT 及 2000 本地 Win32 接口

所用输出模式:   : 用户定义的编码器
已选比特率     : 768 kBit/s
质量        : 高
添加 ID3 标签 : 是
命令行压缩器    : C:\Program Files\Exact Audio Copy\FLAC\FLAC.EXE
附加命令行参数:  : -6 -V -T "ARTIST=%artist%" -T "TITLE=%title%" -T "ALBUM=%albumtitle%" -T "DATE=%year%" -T "TRACKNUMBER=%tracknr%" -T "GENRE=%genre%" -T "COMMENT=%comment%" -T "BAND=%albuminterpret%" -T "ALBUMARTIST=%albuminterpret%" -T "COMPOSER=%composer%" %haslyrics%--tag-from-file=LYRICS="%lyricsfile%"%haslyrics% -T "DISCNUMBER=%cdnumber%" -T "TOTALDISCS=%totalcds%" -T "TOTALTRACKS=%numtracks%" %hascover%--picture="%coverfile%"%hascover% %source% -o %dest%

已抓取 CD 的 TOC

     音轨 |    起始    |    长度    |  起始扇区  |  结束扇区
    --------------------------------------------
      1 |  0:00.33 |  7:01.62 |     33 |  31669
      2 |  7:02.20 |  2:40.30 |  31670 |  43699
      3 |  9:42.50 |  5:02.73 |  43700 |  66422
      4 | 14:45.48 |  6:09.20 |  66423 |  94117
      5 | 20:54.68 |  3:15.65 |  94118 | 108807
      6 | 24:10.58 |  5:10.15 | 108808 | 132072
      7 | 29:20.73 |  5:06.32 | 132073 | 155054
      8 | 34:27.30 |  3:04.63 | 155055 | 168917
      9 | 37:32.18 |  3:32.07 | 168918 | 184824
     10 | 41:04.25 |  2:50.55 | 184825 | 197629
     11 | 43:55.05 |  2:33.70 | 197630 | 209174
     12 | 46:29.00 |  3:05.15 | 209175 | 223064
     13 | 49:34.15 |  4:28.30 | 223065 | 243194
     14 | 54:02.45 |  2:58.58 | 243195 | 256602
     15 | 57:01.28 |  3:50.65 | 256603 | 273917

范围状态及错误

已选择范围

     文件名 D:\ahhfwww Classical\Claudio Abbado - Mahler Symphony No.3 , Cd 01.wav

     峰值电平 89.1 %
     抓取速度 12.8 X
     范围质量 100.0 %
     复制 CRC 57678DAE
     复制成功

没有错误发生

AccurateRip 摘要

音轨  1  不能准确地校验 (确认 18)  [D074798B], 返回 AccurateRip [FD930F34]  (AR v2)
音轨  2  不能准确地校验 (确认 18)  [60446674], 返回 AccurateRip [728A92B4]  (AR v2)
音轨  3  不能准确地校验 (确认 17)  [1F7100FD], 返回 AccurateRip [4C09C6C2]  (AR v2)
音轨  4  不能准确地校验 (确认 17)  [2C720981], 返回 AccurateRip [F1D26197]  (AR v2)
音轨  5  不能准确地校验 (确认 17)  [D7958AA8], 返回 AccurateRip [BB513C79]  (AR v2)
音轨  6  不能准确地校验 (确认 18)  [71174CD8], 返回 AccurateRip [F72FAF85]  (AR v2)
音轨  7  不能准确地校验 (确认 17)  [88942C10], 返回 AccurateRip [57A18EBD]  (AR v2)
音轨  8  不能准确地校验 (确认 17)  [D71DE11D], 返回 AccurateRip [05AA32DA]  (AR v2)
音轨  9  不能准确地校验 (确认 18)  [18FCEBF4], 返回 AccurateRip [76924217]  (AR v2)
音轨 10  不能准确地校验 (确认 18)  [3BBEAFC1], 返回 AccurateRip [07ACEEEF]  (AR v2)
音轨 11  不能准确地校验 (确认 18)  [7FC8998C], 返回 AccurateRip [3E9DE6C0]  (AR v2)
音轨 12  不能准确地校验 (确认 17)  [8B5A7F12], 返回 AccurateRip [D132FE2A]  (AR v2)
音轨 13  不能准确地校验 (确认 18)  [30B9E27A], 返回 AccurateRip [852DA49A]  (AR v2)
音轨 14  不能准确地校验 (确认 17)  [F955332D], 返回 AccurateRip [BC36BF81]  (AR v2)
音轨 15  不能准确地校验 (确认 18)  [82D3C5A6], 返回 AccurateRip [E2DD6BE6]  (AR v2)

没有音轨被准确核实
你的版本可能与数据库的版本不同

状态报告结尾

==== 记录校验日志 6CB2D2040E6C40E2A860E6339273BCDE193F927803FABBE3CC887E511F0932B2 ====

Отчёт auCDtect Task manager:

Код:

-----------------------

DON'T MODIFY THIS FILE

-----------------------

PERFORMER: auCDtect Task Manager, ver. 1.6.0 RC1 build 1.6.0.1
Copyright (c) 2008-2010 y-soft. All rights reserved
http://y-soft.org

ANALYZER: auCDtect: CD records authenticity detector, version 0.8.2
Copyright (c) 2004 Oleg Berngardt. All rights reserved.
Copyright (c) 2004 Alexander Djourik. All rights reserved.

FILE: Abbado - Mahler Sym 3, CD1.flac
  Size: 218604404 Hash: 42A89F2541A61B3C90C89509BA8F3FB0 Accuracy: -m0
  Conclusion: CDDA 100%
  Signature: 23FBD54C2301C856BBAC36DB2B9AD9CE13B4DF29

CD2


Symphonie No. 3 - Norman/ Wiener Philharmoniker/ Abbado
Год: 1980
Catalog#: UCCG-4474/5
Продолжительноcть: 00:41:54
Треклиcт:
Symphonie No.3 In D Minor
Zweite Abteilung...


01. 3/6(Part-2) - Sehr langsam. Misterioso. Durchaus ppp (5:45)
02. 3/7(Part-2) - Piu mosso subito (4:58)
03. 3/8(Part-2) - Lustig im Tempo und keck im Ausdruck (4:32)
04. 3/9(Part-2) - Langsam. Ruhevoll. Empfunden (4:24)
05. 3/10(Part-2) - Nicht mehr so breit (3:08)
06. 3/11(Part-2) - Tempo I. Ruhevoll (4:02)
07. 3/12(Part-2) - a tempo (Etwas bewegter) (4:17)
08. 3/13(Part-2) - Tempo I (3:13)
09. 3/14(Part-2) - Langsam. Tempo I (7:36)

Отчёт ЕАС:

Код:

Exact Audio Copy V1.0 beta 3 from 29. August 2011

EAC 抓取日志文件从23. 一月 2012, 13:05

Gustav Mahler / Symphonie No.3 d-moll (Claudio Abbado, Wiener Philharmoniker) CD 2

使用驱动器  :PLEXTOR CD-R   PX-W4012A   Adapter: 1  ID: 0

读取模式      : 可靠Secure
使用精确流     : 是
清空音频缓存    : 是
使用 C2 指示器 : 否

读取偏移校正:               : 98
读取 Lead-In 和 Lead-Out : 是
用静音填充抓取中丢失偏移的采样       : 是
去除首尾静音块               : 否
 在CRC 计算中使用了空样本       : 是
已用接口                  : Win NT 及 2000 本地 Win32 接口

所用输出模式:   : 用户定义的编码器
已选比特率     : 768 kBit/s
质量        : 高
添加 ID3 标签 : 是
命令行压缩器    : C:\Program Files\Exact Audio Copy\FLAC\FLAC.EXE
附加命令行参数:  : -6 -V -T "ARTIST=%artist%" -T "TITLE=%title%" -T "ALBUM=%albumtitle%" -T "DATE=%year%" -T "TRACKNUMBER=%tracknr%" -T "GENRE=%genre%" -T "COMMENT=%comment%" -T "BAND=%albuminterpret%" -T "ALBUMARTIST=%albuminterpret%" -T "COMPOSER=%composer%" %haslyrics%--tag-from-file=LYRICS="%lyricsfile%"%haslyrics% -T "DISCNUMBER=%cdnumber%" -T "TOTALDISCS=%totalcds%" -T "TOTALTRACKS=%numtracks%" %hascover%--picture="%coverfile%"%hascover% %source% -o %dest%

已抓取 CD 的 TOC

     音轨 |    起始    |    长度    |  起始扇区  |  结束扇区
    --------------------------------------------
      1 |  0:00.00 |  5:44.42 |      0 |  25841
      2 |  5:44.42 |  4:57.65 |  25842 |  48181
      3 | 10:42.32 |  4:31.43 |  48182 |  68549
      4 | 15:14.00 |  4:23.64 |  68550 |  88338
      5 | 19:37.64 |  3:07.51 |  88339 | 102414
      6 | 22:45.40 |  4:01.61 | 102415 | 120550
      7 | 26:47.26 |  4:17.04 | 120551 | 139829
      8 | 31:04.30 |  3:13.24 | 139830 | 154328
      9 | 34:17.54 |  7:36.21 | 154329 | 188549

范围状态及错误

已选择范围

     文件名 D:\ahhfwww Classical\Gustav Mahler - Symphonie No.3 d-moll (Claudio Abbado, Wiener Philharmoniker) CD 2.wav

     峰值电平 99.9 %
     抓取速度 11.9 X
     范围质量 100.0 %
     复制 CRC 21AED547
     复制成功

没有错误发生

AccurateRip 摘要

音轨  1  不能准确地校验 (确认 3)  [3A71F673], 返回 AccurateRip [E238FBC1]  (AR v2)
音轨  2  不能准确地校验 (确认 3)  [8A683207], 返回 AccurateRip [ACACC52B]  (AR v2)
音轨  3  不能准确地校验 (确认 3)  [094C5C5F], 返回 AccurateRip [DEED858C]  (AR v2)
音轨  4  不能准确地校验 (确认 3)  [18AD7ABA], 返回 AccurateRip [10E107F9]  (AR v2)
音轨  5  不能准确地校验 (确认 3)  [2CF3A1C7], 返回 AccurateRip [629746F9]  (AR v2)
音轨  6  不能准确地校验 (确认 3)  [A4BE9A16], 返回 AccurateRip [1CB597D1]  (AR v2)
音轨  7  不能准确地校验 (确认 3)  [3A65B911], 返回 AccurateRip [8252ADA8]  (AR v2)
音轨  8  不能准确地校验 (确认 3)  [09525904], 返回 AccurateRip [9F4E6A5B]  (AR v2)
音轨  9  不能准确地校验 (确认 3)  [959400E4], 返回 AccurateRip [901D97D4]  (AR v2)

没有音轨被准确核实
你的版本可能与数据库的版本不同

状态报告结尾

==== 记录校验日志 E9CE6053D4B19C278B28B33E15F084CFA48171A2E1EC1C2C570C28F020CD4032 ====

Отчёт auCDtect Task manager:

Код:

-----------------------

DON'T MODIFY THIS FILE

-----------------------

PERFORMER: auCDtect Task Manager, ver. 1.6.0 RC1 build 1.6.0.1
Copyright (c) 2008-2010 y-soft. All rights reserved
http://y-soft.org

ANALYZER: auCDtect: CD records authenticity detector, version 0.8.2
Copyright (c) 2004 Oleg Berngardt. All rights reserved.
Copyright (c) 2004 Alexander Djourik. All rights reserved.

FILE: Abbado - Mahler Sym 3, CD2.flac
  Size: 166765408 Hash: 964597D35412A6886D19424325C7B75A Accuracy: -m0
  Conclusion: CDDA 100%
  Signature: D4104B7758AE89EB42029A7750D2970AA111F253

1977 - Symphonie No.4 - Von Stade/ Wiener Philharmoniker/ Abbado


Symphonie No.4 - Von Stade/ Wiener Philharmoniker/ Abbado
Год: 1977
Catalog#: UCCG-4476
Продолжительноcть: 00:58:13
Треклиcт:

01. Bedachting. Nicht eilen (16:13)
02. Im gemachlicher Bewegung. Ohne Hast (9:19)
03. Ruhevoll (23:31)
04. Sehr behaglich (9:11)

Отчёт ЕАС:

Код:

Exact Audio Copy V1.0 beta 3 from 29. August 2011

EAC 抓取日志文件从23. 一月 2012, 12:49

未知艺术家 / 未知标题

使用驱动器  :PLEXTOR CD-R   PX-W4012A   Adapter: 1  ID: 0

读取模式      : 可靠Secure
使用精确流     : 是
清空音频缓存    : 是
使用 C2 指示器 : 否

读取偏移校正:               : 98
读取 Lead-In 和 Lead-Out : 是
用静音填充抓取中丢失偏移的采样       : 是
去除首尾静音块               : 否
 在CRC 计算中使用了空样本       : 是
已用接口                  : Win NT 及 2000 本地 Win32 接口

所用输出模式:   : 用户定义的编码器
已选比特率     : 768 kBit/s
质量        : 高
添加 ID3 标签 : 是
命令行压缩器    : C:\Program Files\Exact Audio Copy\FLAC\FLAC.EXE
附加命令行参数:  : -6 -V -T "ARTIST=%artist%" -T "TITLE=%title%" -T "ALBUM=%albumtitle%" -T "DATE=%year%" -T "TRACKNUMBER=%tracknr%" -T "GENRE=%genre%" -T "COMMENT=%comment%" -T "BAND=%albuminterpret%" -T "ALBUMARTIST=%albuminterpret%" -T "COMPOSER=%composer%" %haslyrics%--tag-from-file=LYRICS="%lyricsfile%"%haslyrics% -T "DISCNUMBER=%cdnumber%" -T "TOTALDISCS=%totalcds%" -T "TOTALTRACKS=%numtracks%" %hascover%--picture="%coverfile%"%hascover% %source% -o %dest%

已抓取 CD 的 TOC

     音轨 |    起始    |    长度    |  起始扇区  |  结束扇区
    --------------------------------------------
      1 |  0:00.00 | 16:12.43 |      0 |  72942
      2 | 16:12.43 |  9:18.42 |  72943 | 114834
      3 | 25:31.10 | 23:30.60 | 114835 | 220644
      4 | 49:01.70 |  9:11.05 | 220645 | 261974

范围状态及错误

已选择范围

     文件名 D:\ahhfwww Classical\未知艺术家 - 未知标题.wav

     峰值电平 98.5 %
     抓取速度 12.6 X
     范围质量 99.9 %
     复制 CRC A6EF6AA4
     复制成功

没有错误发生

AccurateRip 摘要

音轨  1  在数据库中不存在
音轨  2  在数据库中不存在
音轨  3  在数据库中不存在
音轨  4  在数据库中不存在

没有任何音轨在 AccurateRip 数据库中有记录

状态报告结尾

==== 记录校验日志 F9BFB259B76E92AE22CCF6FE6DCF6C50E2EA855C88C2B2C148BCC0B8C760614E ====

Отчёт auCDtect Task manager:

Код:

-----------------------

DON'T MODIFY THIS FILE

-----------------------

PERFORMER: auCDtect Task Manager, ver. 1.6.0 RC1 build 1.6.0.1
Copyright (c) 2008-2010 y-soft. All rights reserved
http://y-soft.org

ANALYZER: auCDtect: CD records authenticity detector, version 0.8.2
Copyright (c) 2004 Oleg Berngardt. All rights reserved.
Copyright (c) 2004 Alexander Djourik. All rights reserved.

FILE: Abbado - Mahler Sym 4.flac
  Size: 238921784 Hash: 746F705977CA3789C802F3E06052F162 Accuracy: -m0
  Conclusion: CDDA 99%
  Signature: 5F8A316FFBF5B4E6DE45E9EFDD24795B60144EF5

1980 - Symphonie No.5 - Chicago Symphony Orchestra/ Abbado


Symphonie No.5 - Chicago Symphony Orchestra/ Abbado
Год: 1980
Catalog#: UCCG-4477
Продолжительноcть: 01:12:28
Треклиcт:
Symphonie No.5 In C Sharp Minor
Erster Teil


01. (Part-1a) - Trauermarsch. In gemessenem Schritt. Streng. Wie ein Kondukt (12:54)
02. (Part-1b) - Sturmisch bewegt. Mit grofter Vehemenz (15:18)
Zweiter Teil
03. (Part-2) - Scherzo. Kraftig, nicht zu schnell (17:40)
Dritter Teil
04. (Part-3a) - Adagietto. Sehr langsam (11:55)
05. (Part-3b) - Rondo-Finale. Allegro - Allegro giocoso. Frisch (14:41)

Отчёт ЕАС:

Код:

Exact Audio Copy V1.0 beta 3 from 29. August 2011

EAC 抓取日志文件从23. 一月 2012, 12:17

Mahler, Gustav / Symphony No. 5, Claudio Abbado - Chicago Symphony Orchestra

使用驱动器  :PLEXTOR CD-R   PX-W4012A   Adapter: 1  ID: 0

读取模式      : 可靠Secure
使用精确流     : 是
清空音频缓存    : 是
使用 C2 指示器 : 否

读取偏移校正:               : 98
读取 Lead-In 和 Lead-Out : 是
用静音填充抓取中丢失偏移的采样       : 是
去除首尾静音块               : 否
 在CRC 计算中使用了空样本       : 是
已用接口                  : Win NT 及 2000 本地 Win32 接口

所用输出模式:   : 用户定义的编码器
已选比特率     : 768 kBit/s
质量        : 高
添加 ID3 标签 : 是
命令行压缩器    : C:\Program Files\Exact Audio Copy\FLAC\FLAC.EXE
附加命令行参数:  : -6 -V -T "ARTIST=%artist%" -T "TITLE=%title%" -T "ALBUM=%albumtitle%" -T "DATE=%year%" -T "TRACKNUMBER=%tracknr%" -T "GENRE=%genre%" -T "COMMENT=%comment%" -T "BAND=%albuminterpret%" -T "ALBUMARTIST=%albuminterpret%" -T "COMPOSER=%composer%" %haslyrics%--tag-from-file=LYRICS="%lyricsfile%"%haslyrics% -T "DISCNUMBER=%cdnumber%" -T "TOTALDISCS=%totalcds%" -T "TOTALTRACKS=%numtracks%" %hascover%--picture="%coverfile%"%hascover% %source% -o %dest%

已抓取 CD 的 TOC

     音轨 |    起始    |    长度    |  起始扇区  |  结束扇区
    --------------------------------------------
      1 |  0:00.00 | 12:54.00 |      0 |  58049
      2 | 12:54.00 | 15:17.60 |  58050 | 126884
      3 | 28:11.60 | 17:40.05 | 126885 | 206389
      4 | 45:51.65 | 11:55.35 | 206390 | 260049
      5 | 57:47.25 | 14:40.70 | 260050 | 326119

范围状态及错误

已选择范围

     文件名 D:\ahhfwww Classical\Mahler, Gustav - Symphony No. 5, Claudio Abbado - Chicago Symphony Orchestra.wav

     峰值电平 97.7 %
     抓取速度 13.3 X
     范围质量 100.0 %
     复制 CRC CCC204F3
     复制成功

没有错误发生

AccurateRip 摘要

音轨  1  精确地校准抓取  3)  [69EC05A6]  (AR v1)
音轨  2  精确地校准抓取  3)  [3C30564D]  (AR v1)
音轨  3  精确地校准抓取  3)  [62363B63]  (AR v1)
音轨  4  精确地校准抓取  3)  [60FE926B]  (AR v1)
音轨  5  精确地校准抓取  3)  [B8CA1817]  (AR v1)

所有音轨精确校准抓取

状态报告结尾

==== 记录校验日志 72CB15D399DC9BF1856ABB46BBB3F65450BE46473D23B8F0D5F4CEFE407273EB ====

Отчёт auCDtect Task manager:

Код:

-----------------------

DON'T MODIFY THIS FILE

-----------------------

PERFORMER: auCDtect Task Manager, ver. 1.6.0 RC1 build 1.6.0.1
Copyright (c) 2008-2010 y-soft. All rights reserved
http://y-soft.org

ANALYZER: auCDtect: CD records authenticity detector, version 0.8.2
Copyright (c) 2004 Oleg Berngardt. All rights reserved.
Copyright (c) 2004 Alexander Djourik. All rights reserved.

FILE: Abbado - Mahler Sym 5.flac
  Size: 318235457 Hash: ED0F54CD6D818DC8AB2F4E28DB77F2F9 Accuracy: -m0
  Conclusion: CDDA 100%
  Signature: D4689E8155EBB89F45AE2E527F14E5BE724B75EE

1981 - Symphonie No.6: Ruckert-Iieder - Schwarz/ Chicago Symphony Orchestra/ Abbado (2 CD)


CD1:

Symphonie No.6 - Ruckert-Iieder - Schwarz/ Chicago Symphony Orchestra/ Abbado
Год: 1981
Catalog#: UCCG-4478/9
Продолжительноcть: 00:52:47
Треклиcт:
Symphonie No.6 In A Minor

01. Allegro energico, ma non troppo. Heftig, aber markig (23:35)
02. Scherzo. Wuchtig (13:19)
03. Andante moderato (15:53)

Отчёт ЕАС:

Код:

Exact Audio Copy V1.0 beta 3 from 29. August 2011

EAC 抓取日志文件从23. 一月 2012, 14:12

Abbado, Chicago Symphony Orchestra / Mahler Symphonie No.6 Abbado

使用驱动器  :PLEXTOR CD-R   PX-W4012A   Adapter: 1  ID: 0

读取模式      : 可靠Secure
使用精确流     : 是
清空音频缓存    : 是
使用 C2 指示器 : 否

读取偏移校正:               : 98
读取 Lead-In 和 Lead-Out : 是
用静音填充抓取中丢失偏移的采样       : 是
去除首尾静音块               : 否
 在CRC 计算中使用了空样本       : 是
已用接口                  : Win NT 及 2000 本地 Win32 接口

所用输出模式:   : 用户定义的编码器
已选比特率     : 768 kBit/s
质量        : 高
添加 ID3 标签 : 是
命令行压缩器    : C:\Program Files\Exact Audio Copy\FLAC\FLAC.EXE
附加命令行参数:  : -6 -V -T "ARTIST=%artist%" -T "TITLE=%title%" -T "ALBUM=%albumtitle%" -T "DATE=%year%" -T "TRACKNUMBER=%tracknr%" -T "GENRE=%genre%" -T "COMMENT=%comment%" -T "BAND=%albuminterpret%" -T "ALBUMARTIST=%albuminterpret%" -T "COMPOSER=%composer%" %haslyrics%--tag-from-file=LYRICS="%lyricsfile%"%haslyrics% -T "DISCNUMBER=%cdnumber%" -T "TOTALDISCS=%totalcds%" -T "TOTALTRACKS=%numtracks%" %hascover%--picture="%coverfile%"%hascover% %source% -o %dest%

已抓取 CD 的 TOC

     音轨 |    起始    |    长度    |  起始扇区  |  结束扇区
    --------------------------------------------
      1 |  0:00.33 | 23:35.05 |     33 | 106162
      2 | 23:35.38 | 13:18.70 | 106163 | 166082
      3 | 36:54.33 | 15:53.23 | 166083 | 237580

范围状态及错误

已选择范围

     文件名 D:\ahhfwww Classical\Abbado, Chicago Symphony Orchestra - Mahler Symphonie No.6 Abbado.wav

     峰值电平 97.1 %
     抓取速度 12.4 X
     范围质量 100.0 %
     复制 CRC 7A7D7185
     复制成功

没有错误发生

AccurateRip 摘要

音轨  1  精确地校准抓取  1)  [464C41CA]  (AR v2)
音轨  2  精确地校准抓取  1)  [F31B5571]  (AR v2)
音轨  3  精确地校准抓取  1)  [85638BBE]  (AR v2)

所有音轨精确校准抓取

状态报告结尾

==== 记录校验日志 FB70CFBE48A295D095F294E3AF3C42BAE20701E03C9DCC0DF845CE524131B8F4 ====

Отчёт auCDtect Task manager:

Код:

-----------------------

DON'T MODIFY THIS FILE

-----------------------

PERFORMER: auCDtect Task Manager, ver. 1.6.0 RC1 build 1.6.0.1
Copyright (c) 2008-2010 y-soft. All rights reserved
http://y-soft.org

ANALYZER: auCDtect: CD records authenticity detector, version 0.8.2
Copyright (c) 2004 Oleg Berngardt. All rights reserved.
Copyright (c) 2004 Alexander Djourik. All rights reserved.

FILE: Abbado - Mahler Sym 6, CD1.flac
  Size: 227093458 Hash: 375D5D21E4863B9C04F21731A6879C65 Accuracy: -m0
  Conclusion: CDDA 100%
  Signature: 434D45836704DF919937D23719E243A96F8DAD3C

CD2


Catalog#: UCCG-4478/9
Продолжительноcть: 00:50:53
Треклиcт:
Symphonie No.6 In A Minor

01. 4/1 - Finale. Allegro Moderato - Allegro energico (30:57)
02. Rueckert Lieder: 1. Blicke mir nicht in die Lieder (1:32)
03. Rueckert Lieder: 2. Liebst du um Schoenheit (2:15)
04. Rueckert Lieder: 3. Ich bin der Welt abhanden gekommen (7:04)
05. Rueckert Lieder: 4. Ich atmet' einen linden Duft (2:55)
06. Rueckert Lieder: 5. Um Mitternacht (6:10)

Отчёт ЕАС:

Код:

Exact Audio Copy V1.0 beta 3 from 29. August 2011

EAC 抓取日志文件从23. 一月 2012, 14:23

Claudio Abbado / Gustav Mahler Symphonie Nr. 6 und Ruckert-Lieder (Disc 2)

使用驱动器  :PLEXTOR CD-R   PX-W4012A   Adapter: 1  ID: 0

读取模式      : 可靠Secure
使用精确流     : 是
清空音频缓存    : 是
使用 C2 指示器 : 否

读取偏移校正:               : 98
读取 Lead-In 和 Lead-Out : 是
用静音填充抓取中丢失偏移的采样       : 是
去除首尾静音块               : 否
 在CRC 计算中使用了空样本       : 是
已用接口                  : Win NT 及 2000 本地 Win32 接口

所用输出模式:   : 用户定义的编码器
已选比特率     : 768 kBit/s
质量        : 高
添加 ID3 标签 : 是
命令行压缩器    : C:\Program Files\Exact Audio Copy\FLAC\FLAC.EXE
附加命令行参数:  : -6 -V -T "ARTIST=%artist%" -T "TITLE=%title%" -T "ALBUM=%albumtitle%" -T "DATE=%year%" -T "TRACKNUMBER=%tracknr%" -T "GENRE=%genre%" -T "COMMENT=%comment%" -T "BAND=%albuminterpret%" -T "ALBUMARTIST=%albuminterpret%" -T "COMPOSER=%composer%" %haslyrics%--tag-from-file=LYRICS="%lyricsfile%"%haslyrics% -T "DISCNUMBER=%cdnumber%" -T "TOTALDISCS=%totalcds%" -T "TOTALTRACKS=%numtracks%" %hascover%--picture="%coverfile%"%hascover% %source% -o %dest%

已抓取 CD 的 TOC

     音轨 |    起始    |    长度    |  起始扇区  |  结束扇区
    --------------------------------------------
      1 |  0:00.33 | 30:56.67 |     33 | 139299
      2 | 30:57.25 |  1:32.18 | 139300 | 146217
      3 | 32:29.43 |  2:14.65 | 146218 | 156332
      4 | 34:44.33 |  7:04.35 | 156333 | 188167
      5 | 41:48.68 |  2:54.55 | 188168 | 201272
      6 | 44:43.48 |  6:10.05 | 201273 | 229027

范围状态及错误

已选择范围

     文件名 D:\ahhfwww Classical\Claudio Abbado - Gustav Mahler Symphonie Nr. 6 und Ruckert-Lieder (Disc 2).wav

     峰值电平 97.0 %
     抓取速度 12.3 X
     范围质量 99.9 %
     复制 CRC 1001060D
     复制成功

没有错误发生

AccurateRip 摘要

音轨  1  不能准确地校验 (确认 10)  [9AEA81B7], 返回 AccurateRip [9ED59635]  (AR v2)
音轨  2  不能准确地校验 (确认 10)  [401B565A], 返回 AccurateRip [8D1CFBCB]  (AR v2)
音轨  3  不能准确地校验 (确认 10)  [F6156F11], 返回 AccurateRip [C80ABFBD]  (AR v2)
音轨  4  不能准确地校验 (确认 10)  [0375E682], 返回 AccurateRip [6108D101]  (AR v2)
音轨  5  不能准确地校验 (确认 10)  [73C70C77], 返回 AccurateRip [ED50C6BF]  (AR v2)
音轨  6  不能准确地校验 (确认 10)  [8901E537], 返回 AccurateRip [4B916BB0]  (AR v2)

没有音轨被准确核实
你的版本可能与数据库的版本不同

状态报告结尾

==== 记录校验日志 0E763D4844DC302312985303586AAC157F428F2B3F656BFA1F894BED481485CD ====

Отчёт auCDtect Task manager:

Код:

-----------------------

DON'T MODIFY THIS FILE

-----------------------

PERFORMER: auCDtect Task Manager, ver. 1.6.0 RC1 build 1.6.0.1
Copyright (c) 2008-2010 y-soft. All rights reserved
http://y-soft.org

ANALYZER: auCDtect: CD records authenticity detector, version 0.8.2
Copyright (c) 2004 Oleg Berngardt. All rights reserved.
Copyright (c) 2004 Alexander Djourik. All rights reserved.

FILE: Abbado - Mahler Sym 6, CD2.flac
  Size: 208047223 Hash: 4836E70905EBC2D12AA878768C1AC5AA Accuracy: -m0
  Conclusion: CDDA 100%
  Signature: 388BC2E52C6453FDC7511930557ABA8A85D5AFA5

1984 - Symphonie No.7 - Chicago Symphony Orchestra/ Abbado


Symphonie No.7 - Chicago Symphony Orchestra/ Abbado
Год: 1984
Catalog#: UCCG-4480
Продолжительноcть: 01:18:44
Треклиcт:
Symphonie No.7 e-moll
01. 1/1 - Langsam (Adagio)(2:03)
02. 1/2 - Nicht schleppen(1:17)
03. 1/3 - Allegro risoluto, ma non troppo(1:27)
04. 1/4 - a tempo (1:48)
05. 1/5 (3:12)
06. 1/6 - Subito Allegro I (3:42)
07. 1/7 - Adagio (Tempo der Einleitung)(2:29)
08. 1/8 - Allegro come prima (5:27)
09. 2. Nachtmusik/1 - Allegro moderato(3:55)
10. 2. Nachtmusik/2 - Sempre l'istesso (Tempo)(6:57)
11. 2. Nachtmusik/3 - Tempo(1:45)
12. 2. Nachtmusik/4 (4:00)
13. 3. Scherzo/1 - Schattenhaft(3:02)
14. 3. Scherzo/2 - Trio (2:07)
15. 3. Scherzo/3 - Wieder wie zu Anfang(3:46)
16. 4. Nachtmusik/1 - Andante amoroso(6:16)
17. 4. Nachtmusik/2 (7:45)
18. 5. Rondo-Finale/1 - Allegro ordinario (Tempo)(3:02)
19. 5. Rondo-Finale/2 - Gemessen (Tempo)(5:27)
20. 5. Rondo-Finale/3 - Tempo I (2:57)
21. 5. Rondo-Finale/4 - Sempre l'istesso (Tempo)(6:19)

Отчёт ЕАС:

Код:

Exact Audio Copy V1.0 beta 3 from 29. August 2011

EAC 抓取日志文件从23. 一月 2012, 13:40

Chicago Symphony Orchestra & Claudio Abbado / Mahler Symphony No.7

使用驱动器  :PLEXTOR CD-R   PX-W4012A   Adapter: 1  ID: 0

读取模式      : 可靠Secure
使用精确流     : 是
清空音频缓存    : 是
使用 C2 指示器 : 否

读取偏移校正:               : 98
读取 Lead-In 和 Lead-Out : 是
用静音填充抓取中丢失偏移的采样       : 是
去除首尾静音块               : 否
 在CRC 计算中使用了空样本       : 是
已用接口                  : Win NT 及 2000 本地 Win32 接口

所用输出模式:   : 用户定义的编码器
已选比特率     : 768 kBit/s
质量        : 高
添加 ID3 标签 : 是
命令行压缩器    : C:\Program Files\Exact Audio Copy\FLAC\FLAC.EXE
附加命令行参数:  : -6 -V -T "ARTIST=%artist%" -T "TITLE=%title%" -T "ALBUM=%albumtitle%" -T "DATE=%year%" -T "TRACKNUMBER=%tracknr%" -T "GENRE=%genre%" -T "COMMENT=%comment%" -T "BAND=%albuminterpret%" -T "ALBUMARTIST=%albuminterpret%" -T "COMPOSER=%composer%" %haslyrics%--tag-from-file=LYRICS="%lyricsfile%"%haslyrics% -T "DISCNUMBER=%cdnumber%" -T "TOTALDISCS=%totalcds%" -T "TOTALTRACKS=%numtracks%" %hascover%--picture="%coverfile%"%hascover% %source% -o %dest%

已抓取 CD 的 TOC

     音轨 |    起始    |    长度    |  起始扇区  |  结束扇区
    --------------------------------------------
      1 |  0:00.33 |  2:03.02 |     33 |   9259
      2 |  2:03.35 |  1:17.18 |   9260 |  15052
      3 |  3:20.53 |  1:27.27 |  15053 |  21604
      4 |  4:48.05 |  1:48.08 |  21605 |  29712
      5 |  6:36.13 |  3:12.20 |  29713 |  44132
      6 |  9:48.33 |  3:42.30 |  44133 |  60812
      7 | 13:30.63 |  2:29.07 |  60813 |  71994
      8 | 15:59.70 |  5:26.38 |  71995 |  96482
      9 | 21:26.33 |  3:55.15 |  96483 | 114122
     10 | 25:21.48 |  6:56.40 | 114123 | 145362
     11 | 32:18.13 |  1:45.32 | 145363 | 153269
     12 | 34:03.45 |  3:59.63 | 153270 | 171257
     13 | 38:03.33 |  3:02.22 | 171258 | 184929
     14 | 41:05.55 |  2:07.15 | 184930 | 194469
     15 | 43:12.70 |  3:45.38 | 194470 | 211382
     16 | 46:58.33 |  6:15.57 | 211383 | 239564
     17 | 53:14.15 |  7:45.18 | 239565 | 274457
     18 | 60:59.33 |  3:01.65 | 274458 | 288097
     19 | 64:01.23 |  5:27.35 | 288098 | 312657
     20 | 69:28.58 |  2:56.52 | 312658 | 325909
     21 | 72:25.35 |  6:18.73 | 325910 | 354332

范围状态及错误

已选择范围

     文件名 D:\ahhfwww Classical\Chicago Symphony Orchestra & Claudio Abbado - Mahler Symphony No.7.wav

     峰值电平 99.9 %
     抓取速度 13.6 X
     范围质量 100.0 %
     复制 CRC 4E9F6E6E
     复制成功

没有错误发生

AccurateRip 摘要

音轨  1  精确地校准抓取  2)  [3AC9E05D]  (AR v2)
音轨  2  精确地校准抓取  2)  [8EB3BDB6]  (AR v2)
音轨  3  精确地校准抓取  2)  [C3556B53]  (AR v2)
音轨  4  精确地校准抓取  2)  [7BC7483E]  (AR v2)
音轨  5  精确地校准抓取  2)  [04E539E4]  (AR v2)
音轨  6  精确地校准抓取  2)  [605CE3CD]  (AR v2)
音轨  7  精确地校准抓取  2)  [2BD3DE4B]  (AR v2)
音轨  8  精确地校准抓取  2)  [0B954DBD]  (AR v2)
音轨  9  精确地校准抓取  2)  [CB462E43]  (AR v2)
音轨 10  精确地校准抓取  2)  [AC4F980C]  (AR v2)
音轨 11  精确地校准抓取  2)  [58952DCF]  (AR v2)
音轨 12  精确地校准抓取  2)  [02892866]  (AR v2)
音轨 13  精确地校准抓取  2)  [245C44B8]  (AR v2)
音轨 14  精确地校准抓取  2)  [CCDEB0AD]  (AR v2)
音轨 15  精确地校准抓取  2)  [1E791198]  (AR v2)
音轨 16  精确地校准抓取  2)  [295BF616]  (AR v2)
音轨 17  精确地校准抓取  2)  [2D7591BD]  (AR v2)
音轨 18  精确地校准抓取  2)  [4188625F]  (AR v2)
音轨 19  精确地校准抓取  2)  [2D699A4F]  (AR v2)
音轨 20  精确地校准抓取  2)  [3CCDBFA3]  (AR v2)
音轨 21  精确地校准抓取  2)  [37CD905B]  (AR v2)

所有音轨精确校准抓取

状态报告结尾

==== 记录校验日志 161500248D3C3FD8D7582619C5B89AF39960E6CA47CDAFA46CC8C43328353DF8 ====

Отчёт auCDtect Task manager:

Код:

-----------------------

DON'T MODIFY THIS FILE

-----------------------

PERFORMER: auCDtect Task Manager, ver. 1.6.0 RC1 build 1.6.0.1
Copyright (c) 2008-2010 y-soft. All rights reserved
http://y-soft.org

ANALYZER: auCDtect: CD records authenticity detector, version 0.8.2
Copyright (c) 2004 Oleg Berngardt. All rights reserved.
Copyright (c) 2004 Alexander Djourik. All rights reserved.

FILE: Abbado - Mahler Sym 7.flac
  Size: 349504042 Hash: EA20C053F70750DC3CF42D4059D826E4 Accuracy: -m0
  Conclusion: CDDA 100%
  Signature: 2688BDD746E77391D78AD9C50A04DC0C307889EF

1994 - Symphonie No.8 - Berliner Philharmoniker/ Abbado (2 CD)


CD1:

Symphonie No.8 - Berliner Philharmoniker/ Abbado
Год: 1994
Catalog#: UCCG-4481/2
Продолжительноcть: 00:23:25
Треклиcт:
Symphonie No.8 In E Flat - "Symphony Of A Thousand"
Erster Teil: Hymnus "Veni Creator Spiritus"


01. Part-1: Hymnus 'Veni, creator spiritus' (1:33)
02. A Tempo. Etwas (Aber Unmerklich) Gemabigter; Immer Sehr Fliebend. "Imple Superna Gratia" (3:35)
03. Etwas Drangend - Noch Einmal Sehr Langsam Als Vorher (Nicht Scleppend). "Infirma Nostri Corporis" (2:10)
04. Tempo I. (Allegro, Etwas Hastig) (1:17)
05. Sehr Fliebend - Noch Einmal Sehr Langsam Als Vorher. Nicht Scleppend. "Infirma Nostri Corporis" (2:45)
06. Plotzlich Sehr Breit Und Leidenschaftlischen Ausdrucks - Mit Plotzlichem Aufschwung. "Accende Lumen Sensibus" (4:54)
07. "Veni, Creator Spritus...Da Gaudiorum Praemia" (4:13)
08. Wieder Frisch. "Gloria Sit Patri Domino" (2:58)

Отчёт ЕАС:

Код:

Exact Audio Copy V1.0 beta 3 from 29. August 2011

EAC 抓取日志文件从23. 一月 2012, 13:12

Claudio Abbado / Mahler Symphony No. 8 (CD1)

使用驱动器  :PLEXTOR CD-R   PX-W4012A   Adapter: 1  ID: 0

读取模式      : 可靠Secure
使用精确流     : 是
清空音频缓存    : 是
使用 C2 指示器 : 否

读取偏移校正:               : 98
读取 Lead-In 和 Lead-Out : 是
用静音填充抓取中丢失偏移的采样       : 是
去除首尾静音块               : 否
 在CRC 计算中使用了空样本       : 是
已用接口                  : Win NT 及 2000 本地 Win32 接口

所用输出模式:   : 用户定义的编码器
已选比特率     : 768 kBit/s
质量        : 高
添加 ID3 标签 : 是
命令行压缩器    : C:\Program Files\Exact Audio Copy\FLAC\FLAC.EXE
附加命令行参数:  : -6 -V -T "ARTIST=%artist%" -T "TITLE=%title%" -T "ALBUM=%albumtitle%" -T "DATE=%year%" -T "TRACKNUMBER=%tracknr%" -T "GENRE=%genre%" -T "COMMENT=%comment%" -T "BAND=%albuminterpret%" -T "ALBUMARTIST=%albuminterpret%" -T "COMPOSER=%composer%" %haslyrics%--tag-from-file=LYRICS="%lyricsfile%"%haslyrics% -T "DISCNUMBER=%cdnumber%" -T "TOTALDISCS=%totalcds%" -T "TOTALTRACKS=%numtracks%" %hascover%--picture="%coverfile%"%hascover% %source% -o %dest%

已抓取 CD 的 TOC

     音轨 |    起始    |    长度    |  起始扇区  |  结束扇区
    --------------------------------------------
      1 |  0:00.33 |  1:33.25 |     33 |   7032
      2 |  1:33.58 |  3:34.62 |   7033 |  23144
      3 |  5:08.45 |  2:09.63 |  23145 |  32882
      4 |  7:18.33 |  1:17.37 |  32883 |  38694
      5 |  8:35.70 |  2:44.50 |  38695 |  51044
      6 | 11:20.45 |  4:53.70 |  51045 |  73089
      7 | 16:14.40 |  4:13.18 |  73090 |  92082
      8 | 20:27.58 |  2:57.50 |  92083 | 105407

范围状态及错误

已选择范围

     文件名 D:\ahhfwww Classical\Claudio Abbado - Mahler Symphony No. 8 (CD1).wav

     峰值电平 99.9 %
     抓取速度 10.7 X
     范围质量 100.0 %
     复制 CRC B4FC6631
     复制成功

没有错误发生

AccurateRip 摘要

音轨  1  不能准确地校验 (确认 10)  [4E6B8980], 返回 AccurateRip [DD1A3DC5]  (AR v2)
音轨  2  不能准确地校验 (确认 10)  [186F61FF], 返回 AccurateRip [80BBDD5E]  (AR v2)
音轨  3  不能准确地校验 (确认 10)  [FDBDB75B], 返回 AccurateRip [C8BEEBA1]  (AR v2)
音轨  4  不能准确地校验 (确认 10)  [7B3D46D2], 返回 AccurateRip [C268AD56]  (AR v2)
音轨  5  不能准确地校验 (确认 9)  [08037A14], 返回 AccurateRip [B3D2C438]  (AR v2)
音轨  6  不能准确地校验 (确认 10)  [C93CDA71], 返回 AccurateRip [539C1AFA]  (AR v2)
音轨  7  不能准确地校验 (确认 10)  [28DA3613], 返回 AccurateRip [FE49ACB9]  (AR v2)
音轨  8  不能准确地校验 (确认 10)  [1762172D], 返回 AccurateRip [650D7392]  (AR v2)

没有音轨被准确核实
你的版本可能与数据库的版本不同

状态报告结尾

==== 记录校验日志 C710E5A2CD850D7AF2E123C5AD99C54412E433C0FB7CCB22087B518C6E896686 ====

Отчёт auCDtect Task manager:

Код:

-----------------------

DON'T MODIFY THIS FILE

-----------------------

PERFORMER: auCDtect Task Manager, ver. 1.6.0 RC1 build 1.6.0.1
Copyright (c) 2008-2010 y-soft. All rights reserved
http://y-soft.org

ANALYZER: auCDtect: CD records authenticity detector, version 0.8.2
Copyright (c) 2004 Oleg Berngardt. All rights reserved.
Copyright (c) 2004 Alexander Djourik. All rights reserved.

FILE: Abbado - Mahler Sym 8, CD1.flac
  Size: 120000461 Hash: 25BC51D4436B19364E00920D15F97D28 Accuracy: -m0
  Conclusion: CDDA 100%
  Signature: CA9DC9337357AFB0268604427831E6EDB1BDF32B

CD2


Symphonie No.8 - Berliner Philharmoniker/ Abbado
Год: 1994
Catalog#: UCCG-4481/2
Продолжительноcть: 00:50:53
Треклиcт:
Symphonie No.8 In E Flat - "Symphony Of A Thousand"
Zweiter Teil: Schlussszene Aus Goethe's "Faust II"

01. Poco Adagio (6:50)
02. Piu Mosso (Allegro Moderato) (3:16)
03. Wieder Langsam. "Waldung, Sie Schwankt Heran" (4:46)
04. Moderato. "Ewiger Wonnebrand" (1:54)
05. Allegro (Allegro Apposionato). "Wie Felsenabgrund Mir Zu Fuben" (4:42)
06. Allegro Deciso. "Gerettet Ist Das Edle Glied Des Geisterwelt Vom Bosen" - "Hande Verschlinget Euch" (1:03)
07. Molto Leggiero. "Jene Rosen, Aus Den Handen" (1:53)
08. Schon Etwas Langsamer Und Immer Noch Ma?iger. "Uns Bleibt Ein Erdenrest" (2:04)
09. Im Anfang Noch Etwas Gehalten. "Ich Spur' Soeben, Nebelnd Um Felsenhoh’" - "Freudig Empfangen Wir" - "Hier Ist Die Aussicht Frei" (1:19)
10. Sempre L'istesso Tempo. "Hochste Herrscherin Der Welt" (4:02)
11. Auberst Langsam. Adagissimo "Dir, Der Unberuhrbaren" - "Du Schwebst Zu Hohen Der Ewigen Reiche" (3:53)
12. Fliebend. "Bei Der Liebe, Die Den Fuben" - "Bei Dem Bronn, Zu Dem Schon Weiland" - Bei Dem Hochgeweihten Orte" (4:57)
13. Una Poenitentium "Neige, Neige, Du Ohnegleiche" (0:54)
14. Unmerklich Frischer Werden. "Er Uberwachst Uns Schon" - "Vom Edlen Geisterchor Umgeben" (3:24)
15. Sehr Langsam. "Komm! Hebe Dich Zu Hohern Spharen" - "Blicket Auf Zum Retterblick" (7:16)
16. Sehr Langsam Beginnend "Alles Vergangliche Ist Nur Ein Gleichnis" (5:43)

Отчёт ЕАС:

Код:

Exact Audio Copy V1.0 beta 3 from 29. August 2011

EAC 抓取日志文件从23. 一月 2012, 14:23

Claudio Abbado / Gustav Mahler Symphonie Nr. 6 und Ruckert-Lieder (Disc 2)

使用驱动器  :PLEXTOR CD-R   PX-W4012A   Adapter: 1  ID: 0

读取模式      : 可靠Secure
使用精确流     : 是
清空音频缓存    : 是
使用 C2 指示器 : 否

读取偏移校正:               : 98
读取 Lead-In 和 Lead-Out : 是
用静音填充抓取中丢失偏移的采样       : 是
去除首尾静音块               : 否
 在CRC 计算中使用了空样本       : 是
已用接口                  : Win NT 及 2000 本地 Win32 接口

所用输出模式:   : 用户定义的编码器
已选比特率     : 768 kBit/s
质量        : 高
添加 ID3 标签 : 是
命令行压缩器    : C:\Program Files\Exact Audio Copy\FLAC\FLAC.EXE
附加命令行参数:  : -6 -V -T "ARTIST=%artist%" -T "TITLE=%title%" -T "ALBUM=%albumtitle%" -T "DATE=%year%" -T "TRACKNUMBER=%tracknr%" -T "GENRE=%genre%" -T "COMMENT=%comment%" -T "BAND=%albuminterpret%" -T "ALBUMARTIST=%albuminterpret%" -T "COMPOSER=%composer%" %haslyrics%--tag-from-file=LYRICS="%lyricsfile%"%haslyrics% -T "DISCNUMBER=%cdnumber%" -T "TOTALDISCS=%totalcds%" -T "TOTALTRACKS=%numtracks%" %hascover%--picture="%coverfile%"%hascover% %source% -o %dest%

已抓取 CD 的 TOC

     音轨 |    起始    |    长度    |  起始扇区  |  结束扇区
    --------------------------------------------
      1 |  0:00.33 | 30:56.67 |     33 | 139299
      2 | 30:57.25 |  1:32.18 | 139300 | 146217
      3 | 32:29.43 |  2:14.65 | 146218 | 156332
      4 | 34:44.33 |  7:04.35 | 156333 | 188167
      5 | 41:48.68 |  2:54.55 | 188168 | 201272
      6 | 44:43.48 |  6:10.05 | 201273 | 229027

范围状态及错误

已选择范围

     文件名 D:\ahhfwww Classical\Claudio Abbado - Gustav Mahler Symphonie Nr. 6 und Ruckert-Lieder (Disc 2).wav

     峰值电平 97.0 %
     抓取速度 12.3 X
     范围质量 99.9 %
     复制 CRC 1001060D
     复制成功

没有错误发生

AccurateRip 摘要

音轨  1  不能准确地校验 (确认 10)  [9AEA81B7], 返回 AccurateRip [9ED59635]  (AR v2)
音轨  2  不能准确地校验 (确认 10)  [401B565A], 返回 AccurateRip [8D1CFBCB]  (AR v2)
音轨  3  不能准确地校验 (确认 10)  [F6156F11], 返回 AccurateRip [C80ABFBD]  (AR v2)
音轨  4  不能准确地校验 (确认 10)  [0375E682], 返回 AccurateRip [6108D101]  (AR v2)
音轨  5  不能准确地校验 (确认 10)  [73C70C77], 返回 AccurateRip [ED50C6BF]  (AR v2)
音轨  6  不能准确地校验 (确认 10)  [8901E537], 返回 AccurateRip [4B916BB0]  (AR v2)

没有音轨被准确核实
你的版本可能与数据库的版本不同

状态报告结尾

==== 记录校验日志 0E763D4844DC302312985303586AAC157F428F2B3F656BFA1F894BED481485CD ====

Отчёт auCDtect Task manager:

Код:

-----------------------

DON'T MODIFY THIS FILE

-----------------------

PERFORMER: auCDtect Task Manager, ver. 1.6.0 RC1 build 1.6.0.1
Copyright (c) 2008-2010 y-soft. All rights reserved
http://y-soft.org

ANALYZER: auCDtect: CD records authenticity detector, version 0.8.2
Copyright (c) 2004 Oleg Berngardt. All rights reserved.
Copyright (c) 2004 Alexander Djourik. All rights reserved.

FILE: Abbado - Mahler Sym 8, CD2.flac
  Size: 233895607 Hash: BB7AE0FAF53360F82C3275ABB5517AF6 Accuracy: -m0
  Conclusion: CDDA 100%
  Signature: 61B0E66CF9ED88B8552400741F27D2F3E873D430

1987 - Symphonie No.9 & 10: Adagio - Wiener Philharmoniker/ Abbado (2 CD)


CD1:

Symphonie No.9 & 10: Adagio - Wiener Philharmoniker/ Abbado
Год: 1987
Catalog#: UCCG-4483/4
Продолжительноcть: 00:52:06
Треклиcт:
01. Symphony 10 (Adagio) - 1. Andante (3:28)
02. Symphony 10 (Adagio) - 2. Andante come prima (5:50)
03. Symphony 10 (Adagio) - 3 (Bratschen/violas) (6:01)
04. Symphony 10 (Adagio) - 4 (Ziffer/24) (3:27)
05. Symphony 10 (Adagio) - 5. a tempo (5:59)
06. 1/1 - Andante comodo (5:03)
07. 1/2 - Ewas frischer (3:47)
08. 1/3 - Tempo I (1:31)
09. 1/4 - Mit wut. Allegro risoluto (1:35)
10. 1/5 - Leidenschaftlich (2:40)
11. 1/6 - Schattenhaft (1:41)
12. 1/7 - Etwas fliessender (3:36)
13. 1/8 - Wie vom Anfang (3:58)
14. 1/9 - Schon ganz langsam (3:31)

Отчёт ЕАС:

Код:

Exact Audio Copy V1.0 beta 3 from 29. August 2011

EAC 抓取日志文件从23. 一月 2012, 13:49

Claudio Abbado / Mahler: Symphony No 9  Symphony No 10 (Adagio)

使用驱动器  :PLEXTOR CD-R   PX-W4012A   Adapter: 1  ID: 0

读取模式      : 可靠Secure
使用精确流     : 是
清空音频缓存    : 是
使用 C2 指示器 : 否

读取偏移校正:               : 98
读取 Lead-In 和 Lead-Out : 是
用静音填充抓取中丢失偏移的采样       : 是
去除首尾静音块               : 否
 在CRC 计算中使用了空样本       : 是
已用接口                  : Win NT 及 2000 本地 Win32 接口

所用输出模式:   : 用户定义的编码器
已选比特率     : 768 kBit/s
质量        : 高
添加 ID3 标签 : 是
命令行压缩器    : C:\Program Files\Exact Audio Copy\FLAC\FLAC.EXE
附加命令行参数:  : -6 -V -T "ARTIST=%artist%" -T "TITLE=%title%" -T "ALBUM=%albumtitle%" -T "DATE=%year%" -T "TRACKNUMBER=%tracknr%" -T "GENRE=%genre%" -T "COMMENT=%comment%" -T "BAND=%albuminterpret%" -T "ALBUMARTIST=%albuminterpret%" -T "COMPOSER=%composer%" %haslyrics%--tag-from-file=LYRICS="%lyricsfile%"%haslyrics% -T "DISCNUMBER=%cdnumber%" -T "TOTALDISCS=%totalcds%" -T "TOTALTRACKS=%numtracks%" %hascover%--picture="%coverfile%"%hascover% %source% -o %dest%

已抓取 CD 的 TOC

     音轨 |    起始    |    长度    |  起始扇区  |  结束扇区
    --------------------------------------------
      1 |  0:00.33 |  3:28.30 |     33 |  15662
      2 |  3:28.63 |  5:49.47 |  15663 |  41884
      3 |  9:18.35 |  6:01.25 |  41885 |  68984
      4 | 15:19.60 |  3:26.58 |  68985 |  84492
      5 | 18:46.43 |  5:58.65 |  84493 | 111407
      6 | 24:45.33 |  5:03.00 | 111408 | 134132
      7 | 29:48.33 |  3:47.02 | 134133 | 151159
      8 | 33:35.35 |  1:30.53 | 151160 | 157962
      9 | 35:06.13 |  1:34.50 | 157963 | 165062
     10 | 36:40.63 |  2:39.47 | 165063 | 177034
     11 | 39:20.35 |  1:40.55 | 177035 | 184589
     12 | 41:01.15 |  3:35.73 | 184590 | 200787
     13 | 44:37.13 |  3:57.62 | 200788 | 218624
     14 | 48:35.00 |  3:31.33 | 218625 | 234482

范围状态及错误

已选择范围

     文件名 D:\ahhfwww Classical\Claudio Abbado - Mahler- Symphony No 9  Symphony No 10 (Adagio).wav

     峰值电平 99.6 %
     抓取速度 12.4 X
     范围质量 99.9 %
     复制 CRC 7831ECCE
     复制成功

没有错误发生

AccurateRip 摘要

音轨  1  不能准确地校验 (确认 9)  [F906C8E3], 返回 AccurateRip [63636760]  (AR v2)
音轨  2  不能准确地校验 (确认 9)  [FCD7355B], 返回 AccurateRip [4973C766]  (AR v2)
音轨  3  不能准确地校验 (确认 9)  [74B73095], 返回 AccurateRip [675814DB]  (AR v2)
音轨  4  不能准确地校验 (确认 9)  [6526862C], 返回 AccurateRip [9FA400A2]  (AR v2)
音轨  5  不能准确地校验 (确认 9)  [3EBFA6BB], 返回 AccurateRip [71E0DD68]  (AR v2)
音轨  6  不能准确地校验 (确认 9)  [0B121611], 返回 AccurateRip [F63FDA75]  (AR v2)
音轨  7  不能准确地校验 (确认 9)  [E75D20A9], 返回 AccurateRip [772663F0]  (AR v2)
音轨  8  不能准确地校验 (确认 9)  [76C51F54], 返回 AccurateRip [C56DDE26]  (AR v2)
音轨  9  不能准确地校验 (确认 9)  [70ECD9C2], 返回 AccurateRip [78000559]  (AR v2)
音轨 10  不能准确地校验 (确认 9)  [4E63412E], 返回 AccurateRip [61FBD767]  (AR v2)
音轨 11  不能准确地校验 (确认 9)  [937B29B0], 返回 AccurateRip [67BC94B2]  (AR v2)
音轨 12  不能准确地校验 (确认 9)  [CA785F6E], 返回 AccurateRip [9DCF978F]  (AR v2)
音轨 13  不能准确地校验 (确认 9)  [4610E147], 返回 AccurateRip [3BD276CF]  (AR v2)
音轨 14  不能准确地校验 (确认 9)  [FC5DA503], 返回 AccurateRip [3A05594C]  (AR v2)

没有音轨被准确核实
你的版本可能与数据库的版本不同

状态报告结尾

==== 记录校验日志 174CB810EB152E70C25A6C35ABC4AB9D87F77A8E62ECC7C3CC6CB9C2B40806D1 ====

Отчёт auCDtect Task manager:

Код:

-----------------------

DON'T MODIFY THIS FILE

-----------------------

PERFORMER: auCDtect Task Manager, ver. 1.6.0 RC1 build 1.6.0.1
Copyright (c) 2008-2010 y-soft. All rights reserved
http://y-soft.org

ANALYZER: auCDtect: CD records authenticity detector, version 0.8.2
Copyright (c) 2004 Oleg Berngardt. All rights reserved.
Copyright (c) 2004 Alexander Djourik. All rights reserved.

FILE: Abbado - Mahler Sym 10, 9-CD1.flac
  Size: 231905293 Hash: B9C4065F34A6E38BE4F6A6A1D5CCED35 Accuracy: -m0
  Conclusion: CDDA 100%
  Signature: D8DAB4413215E102C4B12C5E48C03C7180C97522

CD2


Symphonie No.9 & 10: Adagio - Wiener Philharmoniker/ Abbado
Год: 1987
Catalog#: UCCG-4483/4
Продолжительноcть: 00:52:42
Треклиcт:
01. 2/1 - Im Tempo eines gemachlichen Landlers. (2:42)
02. 2/2 - Poco piu mosso subito (Tempo II) (2:28)
03. 2/3 - Tempo III (1:31)
04. 2/4 - A tempo II (2:45)
05. 2/5 - Tempo I (1:26)
06. 2/6 - Tempo II (1:25)
07. 2/7 - (8 bars before) Tempo I subito (3:10)
08. 3/1 - Rondo-Burleske. Allegro assai. Sehr trotzig (1:50)
09. 3/2 - L'istesso tempo (1:14)
10. 3/3 - Sempre l'istesso tempo (2:15)
11. 3/4 - Sempre l'istesso tempo (3:06)
12. 3/5 (clarinets) (1:39)
13. 3/6 - Tempo I subito (1:36)
14. 3/7 - Piu stretto (1:00)
15. 4/1 - Adagio. Sehr langsam und noch zuruckhaltend (3:49)
16. 4/2 - Pl.tzlich wieder sehr langsam (wie zu Anfang) (2:07)
17. 4/3 - Molto adagio subito (1:59)
18. 4/4 - a tempo (Molto adagio) (2:27)
19. 4/5 - Stets sehr gehalten (2:58)
20. 4/6 - Flie.ender, doch durchaus nicht eilend (1:34)
21. 4/7 - Tempo I. Molto adagio (5:10)
22. 4/8 - Adagissimo (4:29)

Отчёт ЕАС:

Код:

Exact Audio Copy V1.0 beta 3 from 29. August 2011

EAC 抓取日志文件从23. 一月 2012, 13:57

Claudio Abbado / Mahler: Symphony No. 9  No. 10 (1st Mvmt)

使用驱动器  :PLEXTOR CD-R   PX-W4012A   Adapter: 1  ID: 0

读取模式      : 可靠Secure
使用精确流     : 是
清空音频缓存    : 是
使用 C2 指示器 : 否

读取偏移校正:               : 98
读取 Lead-In 和 Lead-Out : 是
用静音填充抓取中丢失偏移的采样       : 是
去除首尾静音块               : 否
 在CRC 计算中使用了空样本       : 是
已用接口                  : Win NT 及 2000 本地 Win32 接口

所用输出模式:   : 用户定义的编码器
已选比特率     : 768 kBit/s
质量        : 高
添加 ID3 标签 : 是
命令行压缩器    : C:\Program Files\Exact Audio Copy\FLAC\FLAC.EXE
附加命令行参数:  : -6 -V -T "ARTIST=%artist%" -T "TITLE=%title%" -T "ALBUM=%albumtitle%" -T "DATE=%year%" -T "TRACKNUMBER=%tracknr%" -T "GENRE=%genre%" -T "COMMENT=%comment%" -T "BAND=%albuminterpret%" -T "ALBUMARTIST=%albuminterpret%" -T "COMPOSER=%composer%" %haslyrics%--tag-from-file=LYRICS="%lyricsfile%"%haslyrics% -T "DISCNUMBER=%cdnumber%" -T "TOTALDISCS=%totalcds%" -T "TOTALTRACKS=%numtracks%" %hascover%--picture="%coverfile%"%hascover% %source% -o %dest%

已抓取 CD 的 TOC

     音轨 |    起始    |    长度    |  起始扇区  |  结束扇区
    --------------------------------------------
      1 |  0:00.33 |  2:41.70 |     33 |  12177
      2 |  2:42.28 |  2:28.27 |  12178 |  23304
      3 |  5:10.55 |  1:31.25 |  23305 |  30154
      4 |  6:42.05 |  2:44.68 |  30155 |  42522
      5 |  9:26.73 |  1:26.35 |  42523 |  49007
      6 | 10:53.33 |  1:25.22 |  49008 |  55404
      7 | 12:18.55 |  3:10.10 |  55405 |  69664
      8 | 15:28.65 |  1:50.05 |  69665 |  77919
      9 | 17:18.70 |  1:14.08 |  77920 |  83477
     10 | 18:33.03 |  2:15.05 |  83478 |  93607
     11 | 20:48.08 |  3:06.35 |  93608 | 107592
     12 | 23:54.43 |  1:39.02 | 107593 | 115019
     13 | 25:33.45 |  1:36.05 | 115020 | 122224
     14 | 27:09.50 |  0:59.58 | 122225 | 126707
     15 | 28:09.33 |  3:49.12 | 126708 | 143894
     16 | 31:58.45 |  2:06.60 | 143895 | 153404
     17 | 34:05.30 |  1:58.63 | 153405 | 162317
     18 | 36:04.18 |  2:27.15 | 162318 | 173357
     19 | 38:31.33 |  2:58.35 | 173358 | 186742
     20 | 41:29.68 |  1:33.72 | 186743 | 193789
     21 | 43:03.65 |  5:09.73 | 193790 | 217037
     22 | 48:13.63 |  4:28.45 | 217038 | 237182

范围状态及错误

已选择范围

     文件名 D:\ahhfwww Classical\Claudio Abbado - Mahler- Symphony No. 9  No. 10 (1st Mvmt).wav

     峰值电平 98.8 %
     抓取速度 12.5 X
     范围质量 100.0 %
     复制 CRC 31871196
     复制成功

没有错误发生

AccurateRip 摘要

音轨  1  不能准确地校验 (确认 8)  [046F5816], 返回 AccurateRip [4E17ED3A]  (AR v2)
音轨  2  不能准确地校验 (确认 9)  [EF07DD70], 返回 AccurateRip [930BE441]  (AR v2)
音轨  3  不能准确地校验 (确认 9)  [FE4576F3], 返回 AccurateRip [27DE14D3]  (AR v2)
音轨  4  不能准确地校验 (确认 9)  [CBAA805D], 返回 AccurateRip [60135398]  (AR v2)
音轨  5  不能准确地校验 (确认 9)  [70A4AC09], 返回 AccurateRip [9266FCD8]  (AR v2)
音轨  6  不能准确地校验 (确认 9)  [80F9218F], 返回 AccurateRip [CAD8222E]  (AR v2)
音轨  7  不能准确地校验 (确认 9)  [93C15585], 返回 AccurateRip [D1799EC3]  (AR v2)
音轨  8  不能准确地校验 (确认 9)  [D900C944], 返回 AccurateRip [D7254308]  (AR v2)
音轨  9  不能准确地校验 (确认 9)  [580FB304], 返回 AccurateRip [71906F77]  (AR v2)
音轨 10  不能准确地校验 (确认 9)  [6C5A57A8], 返回 AccurateRip [4110582F]  (AR v2)
音轨 11  不能准确地校验 (确认 9)  [7F9661B1], 返回 AccurateRip [1BAAA2F6]  (AR v2)
音轨 12  不能准确地校验 (确认 9)  [B1661173], 返回 AccurateRip [6DA1B3CD]  (AR v2)
音轨 13  不能准确地校验 (确认 9)  [0EC508E6], 返回 AccurateRip [C27E0B19]  (AR v2)
音轨 14  不能准确地校验 (确认 9)  [7A7A2722], 返回 AccurateRip [C5222899]  (AR v2)
音轨 15  不能准确地校验 (确认 9)  [2641734B], 返回 AccurateRip [A89FCBFF]  (AR v2)
音轨 16  不能准确地校验 (确认 9)  [D11CDDC4], 返回 AccurateRip [BE5D0ED5]  (AR v2)
音轨 17  不能准确地校验 (确认 9)  [9EB3C348], 返回 AccurateRip [C7745F11]  (AR v2)
音轨 18  不能准确地校验 (确认 9)  [C5DAA3FF], 返回 AccurateRip [103978AB]  (AR v2)
音轨 19  不能准确地校验 (确认 9)  [4B12F1E0], 返回 AccurateRip [EACFFDB5]  (AR v2)
音轨 20  不能准确地校验 (确认 9)  [F9D3556B], 返回 AccurateRip [91BEBC46]  (AR v2)
音轨 21  不能准确地校验 (确认 9)  [DB990A57], 返回 AccurateRip [74EB858D]  (AR v2)
音轨 22  不能准确地校验 (确认 7)  [C23D6C22], 返回 AccurateRip [E1A501BE]  (AR v2)

没有音轨被准确核实
你的版本可能与数据库的版本不同

状态报告结尾

==== 记录校验日志 C8EB77A4796E157BCF8F6B97E85E99C16862D0D1144E4FA6B6BC1F3083DE3ECE ====

Отчёт auCDtect Task manager:

Код:

-----------------------

DON'T MODIFY THIS FILE

-----------------------

PERFORMER: auCDtect Task Manager, ver. 1.6.0 RC1 build 1.6.0.1
Copyright (c) 2008-2010 y-soft. All rights reserved
http://y-soft.org

ANALYZER: auCDtect: CD records authenticity detector, version 0.8.2
Copyright (c) 2004 Oleg Berngardt. All rights reserved.
Copyright (c) 2004 Alexander Djourik. All rights reserved.

FILE: Abbado - Mahler Sym 10, 9-CD2.flac
  Size: 239608966 Hash: BE07E15A8AAF2B972585E6C2FD676EF5 Accuracy: -m0
  Conclusion: CDDA 100%
  Signature: 9437BAE7DC3571B5E0695FB8879D951EA6F44ECA


Дополнительная информация:


Claudio Abbado

Итальянский дирижёр, пианист. Сын известного скрипача Микеланджело Аббадо. Закончил консерваторию им. Верди в Милане, совершенствовался в венской Академии музыки и сценического искусства. В 1958 году победил на конкурсе им. Кусевицкого, в 1963 — 1-я премия на Международном конкурсе молодых дирижёров им. Д. Митропулоса в Нью-Йорке, которая дала ему возможность работать в течение 5 месяцев с Нью-Йоркским филармоническим оркестром. Дебютировал в опере в 1965 году на Зальцбургском фестивале («Севильский цирюльник»). С 1969 года дирижёр, с 1971 по 1986 — музыкальный руководитель Ла Скала (в 1977-79 художественный руководитель). Среди постановок в театре «Капулетти и Монтекки» Беллини (1967), «Симон Бокканегра» Верди (1971), «Итальянка в Алжире» Россини (1974), «Макбет» (1975). Гастролировал с Ла Скала в СССР в 1974 году. В 1982 году создал и возглавил Филармонический оркестр Ла Скала.
С 1971 года главный дирижёр Венского филармонического, с 1979 по 1988 — Лондонского симфонического оркестров. С 1989 по 2002 год Аббадо являлся художественным руководителем и пятым по счёту главным дирижёром Берлинского филармонического оркестра (его предшественники — фон Бюлов, Никиш, Фуртвенглер, Караян; преемник — сэр Саймон Рэттл).
Клаудио Аббадо был художественным руководителем Венской оперы (1986-91, среди постановок «Воццек» Берга, 1987; «Путешествие в Реймс» Россини, 1988; «Хованщина», 1989). В 1987 году Аббадо являлся Генеральным музыкальным директором Вены. Выступал в Ковент Гардене (дебютировал в 1968 году в «Дон Карлосе»). В 1985 году в Лондоне Аббадо организовал и возглавил фестиваль «Малер, Вена и XX век». В 1988 году положил начало ежегодному событию в Вене («Вин модерн»), проходившему как фестиваль современной музыки, но постепенно охватившему все сферы современного искусства. В 1991 году учреждает Международный конкурс композиторов в Вене. В 1992 году Клаудио Аббадо и Наталия Гутман основали фестиваль камерной музыки «Берлинские встречи». С 1994 года дирижёр является художественным руководителем Зальцбургского пасхального фестиваля (среди постановок «Электра», 1995; «Отелло», 1996), на котором стали присуждаться награды за композицию, живопись и литературу.
Клаудио Аббадо интересуется развитием молодых музыкальных талантов. В 1978 году он основал Молодёжный оркестр Европейского Союза, в 1986 году — Молодёжный оркестр им. Густава Малера, став его художественным руководителем и главным дирижёром; он также является художественным советником Камерного оркестра Европы.
Клаудио Аббадо обращается к музыке разных эпох и стилей, в том числе к произведениям композиторов XX века, среди которых Шёнберг, Ноно (первый исполнитель оперы «Под яростным солнцем любви», 1975, театр «Лирико»), Берио, Штокхаузен, Мандзони (первый исполнитель оперы «Атомная смерть», 1965, Пиккола Скала). Аббадо известен постановками опер Верди («Макбет», «Бал-маскарад», «Симон Бокканегра», «Дон Карлос», «Отелло»).
В обширной дискографии Клаудио Аббадо — полное собрание симфонических произведений Бетховена, Малера, Мендельсона, Шуберта, Равеля, Чайковского; симфонии Моцарта; целый ряд произведений Брамса (симфонии, концерты, хоровая музыка), Брукнера; оркестровые сочинения Прокофьева, Мусоргского, Дворжака. Дирижёр удостоен крупнейших премий за грамзаписи, среди которых «Standard Opera Award» за «Бориса Годунова» в Ковент Гардене. Среди записей отметим оперы «Итальянка в Алжире» (солисты Бальтса, Лопардо, Дара, Р. Раймонди, Deutsche Grammofon), «Симон Бокканегра» (солисты Каппуччилли, Френи, Каррерас, Гяуров, Deutsche Grammophon), «Борис Годунов» (солисты Кочерга, Ларин, Липовшек, Рэми, Sony).
Клаудио Аббадо награждён многими наградами, среди которых Большой Крест Итальянской республики, Орден Почётного Легиона, Большой Крест «За заслуги» Федеративной Республики Германии, Почётное Кольцо города Вены, Большой Золотой Почётный знак Австрийской Республики, степени с отличием университетов Абердина, Феррары и Кембриджа, Золотая медаль Международного общества Густава Малера и признанная во всём мире «Музыкальная премия Эрнста фон Сименса».
В 2000-м году у Аббадо обнаружили рак желудка; в ходе лечения дирижеру удалили немалую часть пищеварительной системы. Несмотря на это в 2003-м году Аббадо основал оркестр Lucerne Festival Orchestra.
В конце 2007-го года Аббадо по состоянию здоровья оставил дирижерскую деятельность. 20 января 2014-го, после продолжительной болезни Клаудио Аббадо скончался в Болонье.
Треклист:
Список альбомов:
1982 - Symphonie No.1 - Chicago Symphony Orchestra/ Abbado
1976 - Symphonie No.2 - Chicago Symphony Orchestra/ Abbado (2 CD)
1980 - Symphonie No.3 - Norman/ Wiener Philharmoniker/ Abbado (2 CD)
1977 - Symphonie No.4 - Von Stade/ Wiener Philharmoniker/ Abbado
1980 - Symphonie No.5 - Chicago Symphony Orchestra/ Abbado
1981 - Symphonie No.6: Ruckert-Iieder - Schwarz/ Chicago Symphony Orchestra/ Abbado (2 CD)
1984 - Symphonie No.7 - Chicago Symphony Orchestra/ Abbado
1994 - Symphonie No.8 - Berliner Philharmoniker/ Abbado (2 CD)
1987 - Symphonie No.9 & 10: Adagio - Wiener Philharmoniker/ Abbado (2 CD)

YouTube
Детали торрента:
Название:Mahler - 10 Symphonien - Abbado (1976-1994) 14 SHM-CDs /2011, Deutsche Grammophon, Universal Music/ [FLAC|Lossless]<Classical, Romantic>
Дата добавления:17 Апр 2015 14:38:57
Размер:2,89 GB
Раздают:1
Качают:0
Форум:Оркестровая (Lossless)

All rights reserved © 2015-2018