TORRENTS45.XYZ

Скачать Joe Cocker - Organic (1996) [FLAC|Lossless]<Rock Blues>


Joe Cocker - Organic (1996)
Год: 1996
Жанр: Rock Blues
Label: Parlophone
Catalog #: 7243 8 53647 2 3
Продолжительность: 00:52:58

Кодек: FLAC
Битрейт: Lossless
Тип рипа: image + .cue
Сканы: Complete set

Треклист:
01. Joe Cocker / Into The Mystic (3:32)
02. Bye Bye Blackbird (3:31)
03. Delta Lady (3:17)
04. Heart Full Of Rain (4:49)
05. Don't Let Me Be Misunderstood (3:52)
06. Many Rivers To Cross (4:24)
07. High Lonesome Blue (4:10)
08. Sail Away (3:01)
09. You And I (4:35)
10. Darlin' Be Home Soon (4:11)
11. Dignity (3:14)
12. You Can Leave Your Hat On (3:46)
13. You Are So Beautiful (2:44)
14. Can't Find My Way Home (3:53)

Отчёт ЕАС:

Код:

Exact Audio Copy V0.99 prebeta 5 from 4. May 2009

EAC extraction logfile from 6. November 2009, 15:13

Joe Cocker / Organic

Used drive  : ASUS    DRW-2014L1T   Adapter: 4  ID: 0

Read mode               : Secure
Utilize accurate stream : Yes
Defeat audio cache      : Yes
Make use of C2 pointers : No

Read offset correction                      : 6
Overread into Lead-In and Lead-Out          : No
Fill up missing offset samples with silence : Yes
Delete leading and trailing silent blocks   : No
Null samples used in CRC calculations       : Yes
Used interface                              : Native Win32 interface for Win NT & 2000

Used output format              : User Defined Encoder
Selected bitrate                : 128 kBit/s
Quality                         : High
Add ID3 tag                     : No
Command line compressor         : C:\Program Files\Exact Audio Copy\FLAC\FLAC.EXE
Additional command line options : -8 -V -T "ARTIST=%a" -T "TITLE=%t" -T "ALBUM=%g" -T "DATE=%y" -T "TRACKNUMBER=%n" -T "GENRE=%m" -T "COMMENT=EAC FLAC -8" %s

TOC of the extracted CD

     Track |   Start  |  Length  | Start sector | End sector
    ---------------------------------------------------------
        1  |  0:00.00 |  3:31.65 |         0    |    15889
        2  |  3:31.65 |  3:31.02 |     15890    |    31716
        3  |  7:02.67 |  3:16.50 |     31717    |    46466
        4  | 10:19.42 |  4:48.53 |     46467    |    68119
        5  | 15:08.20 |  3:52.20 |     68120    |    85539
        6  | 19:00.40 |  4:23.57 |     85540    |   105321
        7  | 23:24.22 |  4:10.35 |    105322    |   124106
        8  | 27:34.57 |  3:00.70 |    124107    |   137676
        9  | 30:35.52 |  4:35.15 |    137677    |   158316
       10  | 35:10.67 |  4:11.00 |    158317    |   177141
       11  | 39:21.67 |  3:13.48 |    177142    |   191664
       12  | 42:35.40 |  3:46.25 |    191665    |   208639
       13  | 46:21.65 |  2:43.45 |    208640    |   220909
       14  | 49:05.35 |  3:53.10 |    220910    |   238394

Range status and errors

Selected range

     Filename D:\Новая папка\Joe Cocker\Joe Cocker - 1996 - Organic\Joe Cocker - Organic.wav

     Peak level 100.0 %
     Range quality 100.0 %
     Test CRC 400CBC7E
     Copy CRC 400CBC7E
     Copy OK

No errors occurred

AccurateRip summary

Track  1  cannot be verified as accurate (confidence 47)  [7E7B9301], AccurateRip returned [E1569776]
Track  2  cannot be verified as accurate (confidence 47)  [5FB4101C], AccurateRip returned [186A5588]
Track  3  cannot be verified as accurate (confidence 47)  [BA05B5C4], AccurateRip returned [4CB194E3]
Track  4  cannot be verified as accurate (confidence 47)  [B6897C2C], AccurateRip returned [7EE69779]
Track  5  cannot be verified as accurate (confidence 47)  [A08C4A49], AccurateRip returned [4E469F20]
Track  6  cannot be verified as accurate (confidence 47)  [2629D0A0], AccurateRip returned [F86BC0BF]
Track  7  cannot be verified as accurate (confidence 47)  [4AA3514F], AccurateRip returned [508C59A7]
Track  8  cannot be verified as accurate (confidence 47)  [630C85D2], AccurateRip returned [698887C6]
Track  9  cannot be verified as accurate (confidence 46)  [F1CFA192], AccurateRip returned [D109432B]
Track 10  cannot be verified as accurate (confidence 47)  [73C30C11], AccurateRip returned [51457E9E]
Track 11  cannot be verified as accurate (confidence 47)  [C8E82035], AccurateRip returned [33ADB556]
Track 12  cannot be verified as accurate (confidence 47)  [374BBEEA], AccurateRip returned [9ACA3880]
Track 13  cannot be verified as accurate (confidence 47)  [1033D9C7], AccurateRip returned [DE197E85]
Track 14  cannot be verified as accurate (confidence 46)  [6146BD43], AccurateRip returned [C0435850]

No tracks could be verified as accurate
You may have a different pressing from the one(s) in the database

End of status report

Отчёт auCDtect Task manager:

Код:

-----------------------

DON'T MODIFY THIS FILE

-----------------------

PERFORMER: auCDtect Task Manager, ver. 1.6.0 RC1 build 1.6.0.1
Copyright (c) 2008-2010 y-soft. All rights reserved
http://y-soft.org

ANALYZER: auCDtect: CD records authenticity detector, version 0.8.2
Copyright (c) 2004 Oleg Berngardt. All rights reserved.
Copyright (c) 2004 Alexander Djourik. All rights reserved.

FILE: Joe Cocker - Organic.flac
  Size: 345195008 Hash: 3CB2FF3C5EECD009B386FCB741AD2C61 Accuracy: -m0
  Conclusion: CDDA 100%
  Signature: 013051712E28EFEBB50F96DB4987DA7B15F5CBE4
Детали торрента:
Название:Joe Cocker - Organic (1996) [FLAC|Lossless]<Rock Blues>
Дата добавления:14 Апр 2015 17:16:08
Размер:405 MB
Раздают:3
Качают:0
Форум:Rock (Lossless)

All rights reserved © 2015-2019