TORRENTS45.XYZ

Скачать Schubert - Symphonies Nos.3 & 4 (Helmuth Rilling & Real Filharmonia de Galicia) (1999) [FLAC|Lossless]<Classical, Romantic Period, Symphony>


Schubert - Symphonies Nos.3 & 4 (Helmuth Rilling & Real Filharmonia de Galicia) (1999)
Год: June 29,1999
Жанр: Classical, Romantic Period, Symphony
Лейбл: Hanssler Classic
Номер по каталогу: 98310
Продолжительность: 00:56:38
Кодек: FLAC
Битрейт: Lossless
Тип рипа: image+.cue

Composer: Franz Schubert (1797-1828)
Conductor: Helmuth Rilling
Ensemble: Royal Philharmonic Orchestra Galicia


Треклист:
Symphony no 3 in D major, D 200
01. Adagio maestoso - Allegro con brio (8:45)
02. Allegretto (04:49)
03. Menuetto, Vivace (04:10)
04. Presto Vivace (06:26)
Symphony no 4 in C minor, D 417 "Tragic"
05. Adagio molto - Allegro vivace (08:55)
06. Andante (09:25)
07. Menuetto, Allegro vivace (04:01)
08. Allegro (10:08)

ЕАС - log:

Код:

Exact Audio Copy V1.0 beta 3 from 29. August 2011

EAC extraction logfile from 20. March 2014, 21:53

Helmuth Rilling / Schubert - Symphonies Nos.3 & 4 - Helmuth Rilling

Used drive  : TSSTcorpCDDVDW SH-222BB   Adapter: 2  ID: 1

Read mode               : Secure
Utilize accurate stream : Yes
Defeat audio cache      : Yes
Make use of C2 pointers : No

Read offset correction                      : 6
Overread into Lead-In and Lead-Out          : No
Fill up missing offset samples with silence : Yes
Delete leading and trailing silent blocks   : No
Null samples used in CRC calculations       : Yes
Used interface                              : Native Win32 interface for Win NT & 2000

Used output format              : User Defined Encoder
Selected bitrate                : 896 kBit/s
Quality                         : High
Add ID3 tag                     : No
Command line compressor         : C:\Program Files\Exact Audio Copy\FLAC\FLAC.EXE
Additional command line options : -8 -V -T "TITLE=%title%" -T "ARTIST=%artist%" -T "ALBUMARTIST=%albumartist%" -T "ALBUM=%albumtitle%" -T "DATE=%year%" -T "TRACKNUMBER=%tracknr%" -T "TRACKTOTAL=%numtracks%" -T "GENRE=%genre%" -T "COMMENT=%comment%" -T "PERFORMER=%albuminterpret%" -T "COMPOSER=%composer%" %source% -o %dest%

TOC of the extracted CD

     Track |   Start  |  Length  | Start sector | End sector
    ---------------------------------------------------------
        1  |  0:00.00 |  8:45.35 |         0    |    39409
        2  |  8:45.35 |  4:49.10 |     39410    |    61094
        3  | 13:34.45 |  4:09.65 |     61095    |    79834
        4  | 17:44.35 |  6:25.62 |     79835    |   108771
        5  | 24:10.22 |  8:55.13 |    108772    |   148909
        6  | 33:05.35 |  9:24.74 |    148910    |   191283
        7  | 42:30.34 |  4:00.48 |    191284    |   209331
        8  | 46:31.07 | 10:07.65 |    209332    |   254921

Range status and errors

Selected range

     Filename E:\3000\[3511] Schubert – Symphonies Nos.3 & 4 – Helmuth Rilling\Schubert - Symphonies Nos.3 & 4 - Helmuth Rilling.wav

     Peak level 100.0 %
     Extraction speed 6.6 X
     Range quality 100.0 %
     Test CRC A1530BEC
     Copy CRC A1530BEC
     Copy OK

No errors occurred

AccurateRip summary

Track  1  accurately ripped (confidence 3)  [2AFCF825]  (AR v1)
Track  2  accurately ripped (confidence 3)  [AE85605F]  (AR v1)
Track  3  accurately ripped (confidence 3)  [9F18A15C]  (AR v1)
Track  4  accurately ripped (confidence 3)  [D2941BC7]  (AR v1)
Track  5  accurately ripped (confidence 2)  [9D367625]  (AR v1)
Track  6  accurately ripped (confidence 2)  [58B5A641]  (AR v1)
Track  7  accurately ripped (confidence 2)  [F9F821A6]  (AR v1)
Track  8  accurately ripped (confidence 2)  [3F088F4B]  (AR v1)

All tracks accurately ripped

End of status report

==== Log checksum 99B185880872B549F42BBEF1082963C3DC0254007EA75A71A2655EEA68DC0D5B ====

auCDtect - log:

Код:

-----------------------

DON'T MODIFY THIS FILE

-----------------------

PERFORMER: auCDtect Task Manager, ver. 1.5.1RC6 build 1.5.1.7
Copyright (c) 2008-2010 y-soft. All rights reserved
http://y-soft.org

ANALYZER: auCDtect: CD records authenticity detector, version 0.8.2
Copyright (c) 2004 Oleg Berngardt. All rights reserved.
Copyright (c) 2004 Alexander Djourik. All rights reserved.

FILE: Schubert - Symphonies Nos.3 & 4 - Helmuth Rilling.flac
  Size: 250597308 Hash: 6DE8B77C53FA3F3B267563159694D288 Accuracy: -m0
  Conclusion: CDDA 100%
  Signature: 0060A7F0AF86AC1DF91444D687A51C04B14F38F4

cue sheet (*.cue):

Код:
REM GENRE Classical
REM DATE 1999
REM DISCID 740D4608
REM COMMENT "ExactAudioCopy v1.0b3"
CATALOG 4010276009191
PERFORMER "Helmuth Rilling"
TITLE "Schubert - Symphonies Nos.3 & 4 - Helmuth Rilling"
FILE "Schubert - Symphonies Nos.3 & 4 - Helmuth Rilling.flac" WAVE
  TRACK 01 AUDIO
    TITLE "Sinfonie N° 3 (I) Adagio maestoso - Allegro con brio"
    PERFORMER "Helmuth Rilling"
    ISRC DEA559800449
    INDEX 01 00:00:00
  TRACK 02 AUDIO
    TITLE "Sinfonie N° 3 (II) Allegretto"
    PERFORMER "Helmuth Rilling"
    ISRC DEA559800450
    INDEX 01 08:45:35
  TRACK 03 AUDIO
    TITLE "Sinfonie N° 3 (III) Menuetto, Vivace"
    PERFORMER "Helmuth Rilling"
    ISRC DEA559800451
    INDEX 01 13:34:45
  TRACK 04 AUDIO
    TITLE "Sinfonie N° 3 (IV) Presto Vivace"
    PERFORMER "Helmuth Rilling"
    ISRC DEA559800452
    INDEX 01 17:44:35
  TRACK 05 AUDIO
    TITLE "Sinfonie N° 4 (I) Adagio molto - Allegro vivace"
    PERFORMER "Helmuth Rilling"
    ISRC DEA559800453
    INDEX 00 23:51:50
    INDEX 01 24:10:22
  TRACK 06 AUDIO
    TITLE "Sinfonie N° 4 (II) Andante"
    PERFORMER "Helmuth Rilling"
    ISRC DEA559800454
    INDEX 01 33:05:35
  TRACK 07 AUDIO
    TITLE "Sinfonie N° 4 (III) Menuetto, Allegro vivace"
    PERFORMER "Helmuth Rilling"
    ISRC DEA559800455
    INDEX 01 42:30:34
  TRACK 08 AUDIO
    TITLE "Sinfonie N° 4 (IV) Allegro"
    PERFORMER "Helmuth Rilling"
    ISRC DEA559800456
    INDEX 01 46:31:07




Поглощение/вытеснение
Только с согласия релизера

gvm55

Детали торрента:
Название:Schubert - Symphonies Nos.3 & 4 (Helmuth Rilling & Real Filharmonia de Galicia) (1999) [FLAC|Lossless]<Classical, Romantic Period, Symphony>
Дата добавления:07 Апр 2015 21:05:50
Размер:258 MB
Раздают:1
Качают:0
Форум:Оркестровая (Lossless)

All rights reserved © 2015-2018