TORRENTS45.XYZ

Скачать Наука 2.0. EXперименты с Антоном Войцеховским. Самый прочный (2014) SATRip


Наука 2.0. EXперименты с Антоном Войцеховским. Самый прочный (2014) SATRip
Телекомпания: Наука 2.0
Жанр: Документальный, научно-познавательный, исследование
Выпущено: Россия, Телестудия "Единая медиагруппа", ТК "Наука 2.0"

Описание:
Экспериментатор телеканала «Наука 2.0» Антон Войцеховский обладает невероятным талантом рассказывать просто о самом сложном - необычных явлениях и научных открытиях. У него в помощниках speed–камера, которая снимает 7 тысяч кадров в секунду! Эксперименты – всегда незабываемое зрелище!

Ведущий: Антон Войцеховский

Продолжительность: ~ 00:26:13
Качество видео: SATRip

Видеокодек: XVID
Битрейт видео: ~1700 kb/s
Размер кадра: 720 x 400
Аудиокодек: АС3, 2ch.
Битрейт аудио: 128 kb/s

Mediainfo:

Код:

Формат                                   : AVI
Формат/Информация                        : Audio Video Interleave
Размер файла                             : 345 Мбайт
Продолжительность                        : 26 м.
Общий поток                              : 1838 Кбит/сек
Программа кодирования                    : VirtualDubMod 1.5.10.3 | www.virtualdub-fr.org || (build 2550/release)
Библиотека кодирования                   : VirtualDubMod build 2550/release

Видео
Идентификатор                            : 0
Формат                                   : MPEG-4 Visual
Профиль формата                          : Advanced Simple@L5
Параметр BVOP формата                    : 1
Параметр QPel формата                    : Нет
Параметр GMC формата                     : Без точки перехода
Параметр матрицы формата                 : Default (H.263)
Идентификатор кодека                     : XVID
Идентификатор кодека/Подсказка           : XviD
Продолжительность                        : 26 м.
Битрейт                                  : 1700 Кбит/сек
Ширина                                   : 720 пикселей
Высота                                   : 400 пикселей
Соотношение сторон                       : 16:9
Частота кадров                           : 25,000 кадров/сек
Цветовое пространство                    : YUV
Субдискретизация насыщенности            : 4:2:0
Битовая глубина                          : 8 бит
Тип развёртки                            : Прогрессивная
Метод сжатия                             : С потерями
Бит/(Пиксели*Кадры)                      : 0.236
Размер потока                            : 319 Мбайт (93%)
Библиотека кодирования                   : XviD 1.2.1 (UTC 2008-12-04)

Аудио
Идентификатор                            : 1
Формат                                   : AC-3
Формат/Информация                        : Audio Coding 3
Расширение режима                        : CM (complete main)
Параметр Endianness формата              : Big
Идентификатор кодека                     : 2000
Продолжительность                        : 26 м.
Вид битрейта                             : Постоянный
Битрейт                                  : 128 Кбит/сек
Каналы                                   : 2 канала
Расположение каналов                     : Front: L R
Частота                                  : 48,0 КГц
Битовая глубина                          : 16 бит
Метод сжатия                             : С потерями
Размер потока                            : 24,0 Мбайт (7%)
Выравнивание                             : Разделение по промежуткам
Продолжительность промежутка             : 40  мс. (1,00 видеокадр)
Время предзагрузки промежутка            : 500  мс.
 

В выпуске:

Самый прочный
Все предметы, которые нас окружают, можно условно поделить на два типа: прочные и НЕпрочные. Однако в определенных условиях прочное может стать хрупким, а хрупкое, наоборот, - несокрушимым. В новом фильме "Самый прочный" из цикла "ЕХперименты с Антоном Войцеховским" мы докажем, что многие привычные нам вещи совсем не такие, какими кажутся…
Скриншоты:

Детали торрента:
Название:Наука 2.0. EXперименты с Антоном Войцеховским. Самый прочный (2014) SATRip
Дата добавления:30 Мар 2015 22:37:31
Размер:345 MB
Раздают:1
Качают:0
Форум:Документалистика и Телепередачи

All rights reserved © 2015-2019