TORRENTS45.XYZ

Скачать Большие глаза / Big Eyes (2014) BDRip [H.264/1080p]


Большие глаза / Big Eyes (2014) BDRip
Производство: США, Канада / Weinstein Company, The, Silverwood Films, Tim Burton Productions
Жанр: Драма, Биография

Режиссер: Тим Бёртон
Продюсер: Скотт Александер, Тим Бёртон, Линетт Хауэлл
Актеры: Эми Адамс, Кристоф Вальц, Кристен Риттер, Джейсон Шварцман, Дэнни Хьюстон, Теренс Стэмп, Джон Полито, Элизабетта Фантоне, Джеймс Саито, Гуидо Фурлани

Описание фильма:
Яркая и цветущая Америка 50-х. В сочных красках Сан-Франциско зарождается то, что разрушит традиционный взгляд на искусство и бесповоротно изменит то, как выглядит наша жизнь. Появившийся из ниоткуда художник Уолтер Кин придумал поп-арт. Его необычные картины, изображающие трогательных детей с огромными глазами, произвели настоящий фурор и буквально заполонили весь мир. Их печатают на календарях, открытках, домохозяйки щеголяют в фартуках с их изображением. Уолтер становится королем современного искусства, одним из самых известных арт-деятелей планеты.

Но на пике славы художника его скромная супруга Маргарет вдруг утверждает, что Уолтер — мошенник, и именно она — автор знаменитых картин. Неожиданно открываются шокирующие подробности жизни четы Кин. Весь мир замер в ожидании ответа на вопрос: кто же все-таки тот гений, чьи смелые и оригинальные картины украшают теперь каждую гостиную от Парижа до Аляски?



Дата мировой премьеры: 13 ноября 2014
Дата российской премьеры: 8 января 2015, «Централ Партнершип Classic», «All Media»
Дата выхода DVD релиза: 24 марта 2015, «CD Land»

Продолжительность: 01:45:44
Качество видео: BDRip
Перевод: Дублированный (iTunes)
Субтитры: Вшитые отключаемые
Язык субтитров: Английский

Видео: AVC/H.264, ~15.8 Mbps, 1920 х 1080, 23,976 fps
Аудио 1: Русский, AC3 5.1, 384 kbps, 48 kHz (DUB, iTunes)
Аудио 2: Английский, DTS 5.1, 1509 kbps, 48 kHz (Original)
Сэмпл: Скачать

Награды:

Золотой глобус, 2015 год
Победитель (1):
Лучшая женская роль (комедия или мюзикл) (Эми Адамс)

Номинации (2):
Лучшая мужская роль (комедия или мюзикл) (Кристоф Вальц)
Лучшая песня — «Song: Big Eyes»

Британская академия, 2015 год
Номинации (2):
Лучшая женская роль (Эми Адамс)
Лучшая работа художника-постановщика (Рик Хайнрихс, Шэйн Виё)

Знаете ли вы, что...

• Фильм снят по мотивам книги Маргарет Кин «Большие глаза. Загадочная история Маргарет Кин».
• Изначально вместо Эми Адамс и Кристофа Вальца на главные роли рассматривались кандидатуры Риз Уизерспун и Райана Рейнольдса.
• В сцене, где Уолтер и Маргарет рисуют в парке, на заднем плане на скамье сидит настоящая Маргарет Кин.

Mediainfo:

Код:

Общее
Уникальный идентификатор                 : 252541191748101715265171758660571059255 (0xBDFDAA120C4A650E8860B292B2D35437)
Полное имя                               : D:\Films\Big.Eyes.2014.1080p.BDRip.mkv
Формат                                   : Matroska
Версия формата                           : Version 2
Размер файла                             : 13,3 Гбайт
Продолжительность                        : 1 ч. 45 м.
Общий поток                              : 18,1 Мбит/сек
Дата кодирования                         : UTC 2015-03-29 05:10:22
Программа кодирования                    : mkvmerge v5.2.0 ('I can't explain') built on Dec 18 2011 18:12:03
Библиотека кодирования                   : libebml v1.2.3 + libmatroska v1.3.0

Видео
Идентификатор                            : 1
Формат                                   : AVC
Формат/Информация                        : Advanced Video Codec
Профиль формата                          : High@L4.1
Параметр CABAC формата                   : Да
Параметр ReFrames формата                : 4 кадра
Идентификатор кодека                     : V_MPEG4/ISO/AVC
Продолжительность                        : 1 ч. 45 м.
Битрейт                                  : 15,8 Мбит/сек
Ширина                                   : 1920 пикселей
Высота                                   : 1080 пикселей
Соотношение сторон                       : 16:9
Режим частоты кадров                     : Постоянный
Частота кадров                           : 23,976 кадра/сек
Цветовое пространство                    : YUV
Субдискретизация насыщенности            : 4:2:0
Битовая глубина                          : 8 бит
Тип развёртки                            : Прогрессивная
Бит/(Пиксели*Кадры)                      : 0.318
Размер потока                            : 11,7 Гбайт (88%)
Библиотека кодирования                   : x264 core 144 r0+2574 9abcd72 t_mod_Custom [8-bit@all X86_64]
Настройки программы                      : cabac=1 / ref=4 / deblock=1:-3:-3 / analyse=0x3:0x133 / me=umh / subme=10 / psy=1 / fade_compensate=0.00 / psy_rd=1.00:0.00 / mixed_ref=1 / me_range=48 / chroma_me=1 / trellis=2 / 8x8dct=1 / cqm=0 / deadzone=21,11 / fast_pskip=1 / chroma_qp_offset=-2 / threads=16 / lookahead_threads=2 / sliced_threads=0 / nr=0 / decimate=1 / interlaced=0 / bluray_compat=0 / constrained_intra=0 / fgo=0 / bframes=9 / b_pyramid=2 / b_adapt=2 / b_bias=0 / direct=3 / weightb=1 / open_gop=0 / weightp=2 / keyint=250 / keyint_min=23 / scenecut=40 / intra_refresh=0 / rc_lookahead=150 / rc=crf / mbtree=0 / crf=17.4000 / qcomp=0.70 / qpmin=0:0:0 / qpmax=69:69:69 / qpstep=4 / vbv_maxrate=50000 / vbv_bufsize=62500 / crf_max=0.0 / nal_hrd=none / filler=0 / ip_ratio=1.20 / pb_ratio=1.20 / aq=4:0.70 / aq-sensitivity=10.00 / aq-factor=1.00:1.00:1.00 / aq2=0 / aq3=0
Язык                                     : English
Default                                  : Да
Forced                                   : Нет

Аудио #1
Идентификатор                            : 2
Формат                                   : AC-3
Формат/Информация                        : Audio Coding 3
Расширение режима                        : CM (complete main)
Параметр Endianness формата              : Big
Идентификатор кодека                     : A_AC3
Продолжительность                        : 1 ч. 45 м.
Вид битрейта                             : Постоянный
Битрейт                                  : 384 Кбит/сек
Каналы                                   : 6 каналов
Расположение каналов                     : Front: L C R, Side: L R, LFE
Частота                                  : 48,0 КГц
Битовая глубина                          : 16 бит
Метод сжатия                             : С потерями
Размер потока                            : 290 Мбайт (2%)
Заголовок                                : DUB, iTunes
Язык                                     : Russian
Default                                  : Да
Forced                                   : Нет

Аудио #2
Идентификатор                            : 3
Формат                                   : DTS
Формат/Информация                        : Digital Theater Systems
Режим                                    : 16
Параметр Endianness формата              : Big
Идентификатор кодека                     : A_DTS
Продолжительность                        : 1 ч. 45 м.
Вид битрейта                             : Постоянный
Битрейт                                  : 1509 Кбит/сек
Каналы                                   : 6 каналов
Расположение каналов                     : Front: L C R, Side: L R, LFE
Частота                                  : 48,0 КГц
Битовая глубина                          : 24 бит
Метод сжатия                             : С потерями
Размер потока                            : 1,11 Гбайт (8%)
Заголовок                                : Original
Язык                                     : English
Default                                  : Нет
Forced                                   : Нет

Текст #1
Идентификатор                            : 4
Формат                                   : UTF-8
Идентификатор кодека                     : S_TEXT/UTF8
Идентификатор кодека/Информация          : UTF-8 Plain Text
Язык                                     : English
Default                                  : Нет
Forced                                   : Нет

Текст #2
Идентификатор                            : 5
Формат                                   : UTF-8
Идентификатор кодека                     : S_TEXT/UTF8
Идентификатор кодека/Информация          : UTF-8 Plain Text
Заголовок                                : SDH
Язык                                     : English
Default                                  : Нет
Forced                                   : Нет

Меню
00:00:00.000                             : en:00:00:00.000
00:06:44.446                             : en:00:06:44.446
00:14:34.540                             : en:00:14:34.540
00:21:45.721                             : en:00:21:45.721
00:27:12.381                             : en:00:27:12.381
00:35:10.358                             : en:00:35:10.358
00:40:54.410                             : en:00:40:54.410
00:46:49.640                             : en:00:46:49.640
00:52:36.779                             : en:00:52:36.779
00:58:04.648                             : en:00:58:04.648
01:03:45.822                             : en:01:03:45.822
01:10:49.745                             : en:01:10:49.745
01:17:40.322                             : en:01:17:40.322
01:26:03.533                             : en:01:26:03.533
01:32:05.729                             : en:01:32:05.729
01:39:00.643                             : en:01:39:00.643

-------x264 INFO----------
x264 info: frame I:1250  Avg QP:15.79  size:288412
x264 info: frame P:33732 Avg QP:16.66  size:142082
x264 info: frame B:117130 Avg QP:18.34  size: 65445
x264 info: consecutive B-frames:  2.0%  1.7%  1.7% 49.1% 12.0% 13.5%  9.5%  9.3%  0.3%  0.8%
x264 info: encoded 152112 frames, 7.101 fps, 16164.14 kb/s, 12225 MB
Скриншоты:


Смотреть Online

Детали торрента:
Название:Большие глаза / Big Eyes (2014) BDRip [H.264/1080p]
Дата добавления:29 Мар 2015 08:15:09
Размер:13,3 GB
Раздают:3
Качают:0
Форум:Зарубежные Фильмы (HD, UHD-LQ)

All rights reserved © 2015-2019