TORRENTS45.XYZ

Скачать Wagner - Orchestral Works (Rafael Kubelik & Berliner Philharmoniker Orchestra) (1999) [FLAC|Lossless]<Classical, Orchestral, Romantic Period, Preludes, Opera>


Wagner - Orchestral Works (Rafael Kubelik & Berliner Philharmoniker Orchestra) (1999)
Год: 1999
Жанр: Classical, Orchestral, Romantic Period, Preludes, Opera
Лейбл: Deutsche Grammophon
Номер по каталогу: Pt0028946333624
Продолжительность: 00:59:02
Кодек: FLAC
Битрейт: Lossless
Тип рипа: image +.cue

Composer: Richard Wagner (1813 - 1883)
Conductor: Rafael Kubelik
Ensemble: Berliner Philharmoniker Orchestra


Треклист:
The Mastersingers of Nuremberg
01. Prelude (10:02)
Lohengrin
02. Prelude to Act I (09:55)
Siegfried
03. Idylle de Siegfried (18:59)
Tristan and Isolde
04. Prelude to Act I (12:27)
05. Mort d'Isolde (07:39)

ЕАС - log:

Код:

Exact Audio Copy V1.0 beta 3 from 29. August 2011

EAC extraction logfile from 25. April 2014, 9:08

Rafael Kubelik / Wagner - Orchestral Works - Rafael Kubelik

Used drive  : TSSTcorpCDDVDW SH-222BB   Adapter: 2  ID: 1

Read mode               : Secure
Utilize accurate stream : Yes
Defeat audio cache      : Yes
Make use of C2 pointers : No

Read offset correction                      : 6
Overread into Lead-In and Lead-Out          : No
Fill up missing offset samples with silence : Yes
Delete leading and trailing silent blocks   : No
Null samples used in CRC calculations       : Yes
Used interface                              : Native Win32 interface for Win NT & 2000

Used output format              : User Defined Encoder
Selected bitrate                : 896 kBit/s
Quality                         : High
Add ID3 tag                     : No
Command line compressor         : C:\Program Files\Exact Audio Copy\FLAC\FLAC.EXE
Additional command line options : -8 -V -T "TITLE=%title%" -T "ARTIST=%artist%" -T "ALBUMARTIST=%albumartist%" -T "ALBUM=%albumtitle%" -T "DATE=%year%" -T "TRACKNUMBER=%tracknr%" -T "TRACKTOTAL=%numtracks%" -T "GENRE=%genre%" -T "COMMENT=%comment%" -T "PERFORMER=%albuminterpret%" -T "COMPOSER=%composer%" %source% -o %dest%

TOC of the extracted CD

     Track |   Start  |  Length  | Start sector | End sector
    ---------------------------------------------------------
        1  |  0:00.00 | 10:02.00 |         0    |    45149
        2  | 10:02.00 |  9:55.00 |     45150    |    89774
        3  | 19:57.00 | 18:59.00 |     89775    |   175199
        4  | 38:56.00 | 12:27.00 |    175200    |   231224
        5  | 51:23.00 |  7:39.27 |    231225    |   265676

Range status and errors

Selected range

     Filename G:\Ripped general\[dg.016] Wagner – Orchestral Works – Rafael Kubelik\Wagner - Orchestral Works - Rafael Kubelik.wav

     Peak level 87.8 %
     Extraction speed 6.5 X
     Range quality 100.0 %
     Test CRC 29B7E422
     Copy CRC 29B7E422
     Copy OK

No errors occurred

AccurateRip summary

Track  1  accurately ripped (confidence 2)  [9627879A]  (AR v2)
Track  2  accurately ripped (confidence 2)  [F127B312]  (AR v2)
Track  3  accurately ripped (confidence 2)  [DD0E086C]  (AR v2)
Track  4  accurately ripped (confidence 2)  [3D9C6D20]  (AR v2)
Track  5  accurately ripped (confidence 2)  [47355F95]  (AR v2)

All tracks accurately ripped

End of status report

==== Log checksum 52A217BF2F52EE661F92B7AA0441587FA193E082EC6D2BB9111086C75E1AE3DF ====

auCDtect - log:

Код:

-----------------------

DON'T MODIFY THIS FILE

-----------------------

PERFORMER: auCDtect Task Manager, ver. 1.5.1RC6 build 1.5.1.7
Copyright (c) 2008-2010 y-soft. All rights reserved
http://y-soft.org

ANALYZER: auCDtect: CD records authenticity detector, version 0.8.2
Copyright (c) 2004 Oleg Berngardt. All rights reserved.
Copyright (c) 2004 Alexander Djourik. All rights reserved.

FILE: Wagner - Orchestral Works - Rafael Kubelik.flac
  Size: 265146546 Hash: 2FADA3B90BC20E4AD9F8B66958914C7E Accuracy: -m0
  Conclusion: CDDA 100%
  Signature: 2B0DC42C6C8A1771B53E04D93CC3C69B9E2B4481

cue sheet (*.cue):

Код:
REM GENRE Classical
REM DATE 1963
REM DISCID 400DD605
REM COMMENT "ExactAudioCopy v1.0b3"
CATALOG 0028945329024
PERFORMER "Rafael Kubelik"
TITLE "Wagner - Orchestral Works - Rafael Kubelik"
FILE "Wagner - Orchestral Works - Rafael Kubelik.flac" WAVE
  TRACK 01 AUDIO
    TITLE "Die Meistersinger von Nьrnberg-Vorspiel"
    PERFORMER "Rafael Kubelik"
    ISRC DEF056302420
    INDEX 01 00:00:00
  TRACK 02 AUDIO
    TITLE "Lohengrin-Vorspiel zu Akt 1"
    PERFORMER "Rafael Kubelik"
    ISRC DEF056302410
    INDEX 00 09:58:25
    INDEX 01 10:02:00
  TRACK 03 AUDIO
    TITLE "Siegfried-Idyll"
    PERFORMER "Rafael Kubelik"
    INDEX 00 19:53:25
    INDEX 01 19:57:00
  TRACK 04 AUDIO
    TITLE "Tristan und Isolde- Vorspiel zum 1.Aufzug"
    PERFORMER "Rafael Kubelik"
    INDEX 00 38:52:25
    INDEX 01 38:56:00
  TRACK 05 AUDIO
    TITLE "Isoldes Liebestod"
    PERFORMER "Rafael Kubelik"
    INDEX 01 51:23:00
Детали торрента:
Название:Wagner - Orchestral Works (Rafael Kubelik & Berliner Philharmoniker Orchestra) (1999) [FLAC|Lossless]<Classical, Orchestral, Romantic Period, Preludes, Opera>
Дата добавления:22 Фев 2015 20:24:49
Размер:255 MB
Раздают:1
Качают:0
Форум:Оркестровая (Lossless)

All rights reserved © 2015-2018