TORRENTS45.XYZ

Скачать Next Order - Live-Refined (2009) [FLAC|Lossless]<Fusion>


Next Order - Live-Refined (2009)
Год: 2009
Жанр: Fusion
Продолжительность: 01:12:15
Label: Order Tone Music
Кодек: FLAC
Битрейт: Lossless
Тип рипа: tracks+.cue

Треклист:
01. Death MeNtal
02. The Carrot & The Stick
03. The Carrot & The Stick
04. Oro Campo
05. No Hegitation
06. Fable
07. Simm 55
08. Locus
09. Angry Stone

Дополнительная информация:

Yuji Muto - Guitar
Takumi Seino - Guitar
Atsutomo Ishigaki - Bass
Hiroshi “Gori” Matsuda - Drums

Отчёт ЕАС:

Код:

Exact Audio Copy V0.99 prebeta 5 from 4. May 2009

Archivo Log de extracciones desde 22. Mayo 2011, 17:28

Next Order / Live-Refined

Usar unidad  : HL-DT-STDVDRAM GH22NS50   Adapter: 1  ID: 0

Modo de Lectura           : Seguro
Utilizar Corriente Exacta : Sн
Descartar Audio cachй     : Sн
Utilizar los punteros C2  : No

Correcciуn de Desplazamiento de Lectura/Escritura combinadas : 667
Sobreleer tanto en Lead-In como en Lead-Out                  : No
Rellenar las muestras faltantes con silencios                : Sн
Eliminar silencios inicial y final                           : No
Se han usado muestras nulas en los cбlculos CRC              : Sн
Interfaz usada                                               : Interfaz propio de Win32 para Windowns NT y 2000
Gestiуn de Gaps                                              : Aсadido a la pista previa

Formato de Salida utilizado               : Compresor definido por el usuario
Bitrate seleccionado                      : 1024 kBit/s
Calidad                                   : Alta
Aсadir Etiqueta ID3                       : No
Compresor de linea de comandos            : C:\Archivos de programa\Exact Audio Copy\FLAC\FLAC.EXE
Opciones adicionales en lнnea de comandos : -6 -V -T "ARTIST=%a" -T "TITLE=%t" -T "ALBUM=%g" -T "DATE=%y" -T "TRACKNUMBER=%n" -T "GENRE=%m" -T "COMMENT=%e" %s -o %d
Usar desplazamiento de compresiуn         : 0

TOC del CD extraido

     Pista |  Inicio  | Duraciуn | Sector inicial | Sector final
    -------------------------------------------------------------
        1  |  0:00.00 |  7:17.28 |          0     |     32802
        2  |  7:17.28 |  6:53.09 |      32803     |     63786
        3  | 14:10.37 |  7:42.04 |      63787     |     98440
        4  | 21:52.41 |  8:43.41 |      98441     |    137706
        5  | 30:36.07 |  6:49.20 |     137707     |    168401
        6  | 37:25.27 |  7:43.55 |     168402     |    203181
        7  | 45:09.07 |  9:48.25 |     203182     |    247306
        8  | 54:57.32 |  8:23.13 |     247307     |    285044
        9  | 63:20.45 |  8:53.02 |     285045     |    325021

Pista  1

     Nombre de Archivo D:\Emule\Incoming\01. Death MeNtal.wav

     Longitud Pre-gap  0:00:02.00

     Nivel Pico 98.8 %
     Calidad de Pista 100.0 %
     Copiar CRC 91B5E1C7
     Copia OK

Pista  2

     Nombre de Archivo D:\Emule\Incoming\02. The Carrot & The Stick.wav

     Nivel Pico 98.8 %
     Calidad de Pista 100.0 %
     Copiar CRC 06F733B6
     Copia OK

Pista  3

     Nombre de Archivo D:\Emule\Incoming\03. The Carrot & The Stick.wav

     Nivel Pico 98.8 %
     Calidad de Pista 100.0 %
     Copiar CRC A49682E1
     Copia OK

Pista  4

     Nombre de Archivo D:\Emule\Incoming\04. Oro Campo.wav

     Nivel Pico 98.8 %
     Calidad de Pista 100.0 %
     Copiar CRC 3EE074F0
     Copia OK

Pista  5

     Nombre de Archivo D:\Emule\Incoming\05. No Hegitation.wav

     Nivel Pico 98.8 %
     Calidad de Pista 100.0 %
     Copiar CRC C6AE6B9C
     Copia OK

Pista  6

     Nombre de Archivo D:\Emule\Incoming\06. Fable.wav

     Nivel Pico 98.8 %
     Calidad de Pista 100.0 %
     Copiar CRC 44569EF2
     Copia OK

Pista  7

     Nombre de Archivo D:\Emule\Incoming\07. Simm 55.wav

     Nivel Pico 98.8 %
     Calidad de Pista 100.0 %
     Copiar CRC 6AF5BE39
     Copia OK

Pista  8

     Nombre de Archivo D:\Emule\Incoming\08. Locus.wav

     Nivel Pico 98.8 %
     Calidad de Pista 100.0 %
     Copiar CRC 7EE846BE
     Copia OK

Pista  9

     Nombre de Archivo D:\Emule\Incoming\09. Angry Stone.wav

     Nivel Pico 98.8 %
     Calidad de Pista 100.0 %
     Copiar CRC 90C7B267
     Copia OK

Sin Errores

Final del Informe

Отчёт auCDtect Task manager:

Код:

-----------------------

DON'T MODIFY THIS FILE

-----------------------

PERFORMER: auCDtect Task Manager, ver. 1.6.0 RC1 build 1.6.0.1
Copyright (c) 2008-2010 y-soft. All rights reserved
http://y-soft.org

ANALYZER: auCDtect: CD records authenticity detector, version 0.8.2
Copyright (c) 2004 Oleg Berngardt. All rights reserved.
Copyright (c) 2004 Alexander Djourik. All rights reserved.

FILE: 06. Fable.flac
  Size: 41538592 Hash: 09F35265F74C8DE5C1FA5D35C277F106 Accuracy: -m0
  Conclusion: CDDA 99%
  Signature: 13BC39891CE8E0B973EEB44AA768701958BC88C1
FILE: 05. No Hegitation.flac
  Size: 39966020 Hash: AD1BE01446C5F5AB689AC0DC5D1E27F1 Accuracy: -m0
  Conclusion: CDDA 100%
  Signature: 55D0CAD636066108918F677F24546C95A532EB16
FILE: 04. Oro Campo.flac
  Size: 49921639 Hash: 10611643E53A27D686D2EFA892385F77 Accuracy: -m0
  Conclusion: CDDA 100%
  Signature: 5FEF0A0F89C8848937A4F926E103795956F39121
FILE: 03. The Carrot & The Stick.flac
  Size: 46587992 Hash: 0D46DE46363914EC09966309EACA145B Accuracy: -m0
  Conclusion: CDDA 100%
  Signature: 08F342C6E8C0CF953BD6DA0AC1445648256C7BF5
FILE: 02. The Carrot & The Stick.flac
  Size: 28185844 Hash: 76ED7828520C97AE1D1FBF76379049C4 Accuracy: -m0
  Conclusion: CDDA 100%
  Signature: E4E5B2137A7D94300DB3EE7711F78A520E20E6D7
FILE: 01. Death MeNtal.flac
  Size: 51142033 Hash: 187396F7680DD2ABE159527D778F6DFC Accuracy: -m0
  Conclusion: CDDA 100%
  Signature: 3B2BAB7D71D8DC291553D0C54EEC8B9EB679093C
FILE: 09. Angry Stone.flac
  Size: 54127724 Hash: CE800D5264F493AD08C2E7D33480AAB4 Accuracy: -m0
  Conclusion: CDDA 100%
  Signature: CCD1AC9627644FF42817DA5DE013FC9CC9F2EEDB
FILE: 08. Locus.flac
  Size: 52509613 Hash: AEA5FA5FBC4005D197078D42D748431B Accuracy: -m0
  Conclusion: CDDA 100%
  Signature: C3759EA123C002A5F46B7F2C2A573381C06F31F4
FILE: 07. Simm 55.flac
  Size: 63589031 Hash: FA1BFA473B7E5BF961F11673670E6026 Accuracy: -m0
  Conclusion: CDDA 100%
  Signature: BBD00E9FAFEEEEE4A1F7970AC82EF2CD0AFCCDFE
YouTube

Детали торрента:
Название:Next Order - Live-Refined (2009) [FLAC|Lossless]<Fusion>
Дата добавления:13 Фев 2015 21:14:25
Размер:410 MB
Раздают:1
Качают:0
Форум:Jazz (Lossless)

All rights reserved © 2015-2018