TORRENTS45.XYZ

Скачать Черепашки-ниндзя / Teenage Mutant Ninja Turtles (2014) HDRip [AVO]


Черепашки-ниндзя / Teenage Mutant Ninja Turtles (2014) HDRip
Производство: США
Жанр: Фантастика, Боевик, Комедия
Режиссер: Джонатан Либесман
Актеры: Меган Фокс, Уилл Арнетт, Уильям Фихтнер, Алан Ричсон, Ноэль Фишер, Пит Пложек, Джонни Ноксвил, Джереми Ховард, Дэнни Вудберн, Тони Шэлуб

Описание фильма:
Город нуждается в героях. Тьма окутала Нью-Йорк в виде Шреддера и его зловещего Клана Футов, у которого имеется железный контроль над всеми, от полицейских до политиков. Будущее выглядит мрачным, пока из канализации не поднимается и не раскрывает своё предназначение четвёрка отверженных братьев — Черепашки-ниндзя. Черепашки должны работать вместе с бесстрашным репортёром Эйприл и её саркастическим оператором Верном Фенвиком, чтобы спасти город и разгадать дьявольский план Шреддера.
Перевод: Авторский (одноголосый, закадровый) А.Ю.Гаврилов
Язык субтитров: Русский (на японскую речь)
Вид субтитров: Вшитые неотключаемые


Дата мировой премьеры: 3 августа 2014
Дата российской премьеры: 7 августа 2014, «Централ Партнершип» 3D
Дата выхода DVD/Blu-Ray релиза: 15 декабря 2014, «Новый Диск»
Продолжительность: 01:41:18
Качество видео: HDRip

Видео: MPEG4, XviD, 720x304 (2.35:1), 23.976 fps, 1 594 Kbps (0.304 bit/pixel)
Аудио: AC-3, 48.0 KHz, 6 ch, 448 Kbps, CBR

Спасибо!

За перевод А. Гаврилова большое спасибо пользователям форума hdtracker:
kinobbk; Видео; saenwert; dunhill200; rydanes; Brown15; Chistobaev; Hattori Hanzo; Xerman13; karantin66; therox; Role; kondratzx; hulahup; Диммон; Slimka; marlboro-man; Yrok; Vimann; Tagansky; KpucTo161; _MyxAmoP_; GaryH

Знаете ли вы, что...

• Изначально создатели хотели, чтобы у Микеланджело на шее была золотая цепь, но эту идею раскритиковали как стереотипную отсылку к чернокожим людям. В итоге вместо золотой цепи появилось ожерелье из морских ракушек, чтобы подчеркнуть любовь Микеланджело к серфингу и скейтбордингу.
• Кастинг на роли в клан «Фут» был проведен, когда празднование 25-летия «Черепашек-ниндзя» проходило в Лос-Анджелесе. Роли достались обычным людям с улицы.
• В фильме Майкла Бэя «Армагеддон» (1998) в эпизодической роли снималась Джудит Хоаг (сыгравшая Эйприл О`Нил в фильме «Черепашки-ниндзя», 1990). В фильме Бэя «Перл-Харбор» (2001) снимались Джеймс Саито (сыгравший роль Шредера в фильме «Черепашки-ниндзя», 1990) и Мако (Сплинтер из фильма «Черепашки-ниндзя», 2007).
• Создатели фильма отметили, что в процессе работы над проектом их источниками вдохновения для экшн-сцен были такие фильмы, как «Кулак легенды» (1994) и «Рейд» (2011).
• На роль Сплинтера был взят актер Дэнни Вудберн, чей рост составляет 122 сантиметра, что соответствует оригинальным комиксам. Вудберн очень расстроился, когда узнал, что он будет только исполнять движения Сплинтера, которые затем будут перенесены в фильм при помощи технологии захвата движения. Голосом же Сплинтера стал Тони Шэлуб.
• Джеймс Саито (первый, кто сыграл Шредера в художественном фильме) и Уильям Фихтнер (ученик Шредера в этом фильме) снимались в фильме Майкла Бэя «Перл-Харбор» (2001).
• Бретт Рэтнер рассматривался на должность режиссера проекта.
Джейн Леви, Анна Кендрик и Элизабет Олсен проходили прослушивание на роль Эйприл О`Нил.
• Фильм вышел к 30-летию франшизы «Черепашки-ниндзя».
• Остальные факты на kinopoisk.ru

Ошибки в фильме:

• В момент когда Эйприл звонит Вернону (58:55), тот берет трубку и улыбаясь говорит «Эйприл!». На самом деле он не мог знать, что это она, потому как Эйприл звонит с уличного таксофона.
• Когда черепашки назначают встречу, Эйприл приходит в черной майке. Однако позже в канализации на ней серая майка с рисунком.
• Когда черепашки-ниндзя сбежали из особняка вместе с Эйприл и ее оператором, они катились по канализационным трубам прямо по воде. Когда же компания приземлилась, одежда и волосы у Эйприл и оператора были совершенно сухими.
• Когда Эйприл впервые рассказывает руководству о загадочном «герое», помешавшем клану, в кадрах, где ее показывают со спины, цвет ее волос — рыжий, хотя в остальных ракурсах волосы у Эйприл черные.

MediaInfo:

Формат : AVI
Формат/Информация : Audio Video Interleave
Размер файла : 1,45 Гбайт
Продолжительность : 1 ч. 41 м.
Общий поток : 2052 Кбит/сек
Программа кодирования : VirtualDubModRus 1.5.10.2 (build 2542/release)
Библиотека кодирования : VirtualDubMod build 2542/release

Видео
Идентификатор : 0
Формат : MPEG-4 Visual
Профиль формата : Advanced Simple@L5
Параметр BVOP формата : 1
Параметр QPel формата : Нет
Параметр GMC формата : Без точки перехода
Параметр матрицы формата : Выборочная
Идентификатор кодека : XVID
Идентификатор кодека/Подсказка : XviD
Продолжительность : 1 ч. 41 м.
Битрейт : 1594 Кбит/сек
Ширина : 720 пикселей
Высота : 304 пикселя
Соотношение сторон : 2,35:1
Частота кадров : 23,976 кадра/сек
Цветовое пространство : YUV
Субдискретизация насыщенности : 4:2:0
Битовая глубина : 8 бит
Тип развёртки : Прогрессивная
Метод сжатия : С потерями
Бит/(Пиксели*Кадры) : 0.304
Размер потока : 1,13 Гбайт (78%)
Библиотека кодирования : XviD 73

Аудио
Идентификатор : 1
Формат : AC-3
Формат/Информация : Audio Coding 3
Расширение режима : CM (complete main)
Параметр Endianness формата : Big
Идентификатор кодека : 2000
Продолжительность : 1 ч. 41 м.
Вид битрейта : Постоянный
Битрейт : 448 Кбит/сек
Каналы : 6 каналов
Расположение каналов : Front: L C R, Side: L R, LFE
Частота : 48,0 КГц
Битовая глубина : 16 бит
Метод сжатия : С потерями
Размер потока : 325 Мбайт (22%)
Выравнивание : Разделение по промежуткам
Продолжительность промежутка : 42 мс. (1,00 видеокадр)
Время предзагрузки промежутка : 500 мс.
Скриншоты:


Смотреть Online

Детали торрента:
Название:Черепашки-ниндзя / Teenage Mutant Ninja Turtles (2014) HDRip [AVO]
Дата добавления:10 Фев 2015 18:05:18
Размер:1,45 GB
Раздают:1
Качают:0
Форум:Зарубежные Фильмы (HD*Rip/LQ, DVDRip, SATRip, VHSRip)

All rights reserved © 2015-2019