TORRENTS45.XYZ

Скачать Наполеон: Русская кампания 1812 года / Napoleon: the Russian campaign (2013) HDTVRip (Серии: 1-2 из 2)


Наполеон: Русская кампания 1812 года / Napoleon: the Russian campaign (2013) HDTVRip (Серии: 1-2 из 2)
Произвуодство: Франция, Arte France, Docside Zed
Жанр: Документальный, постановочный, историческая реконструкция

Описание:
Мечты Наполеона войти в Москву с триумфом быстро развеялись, когда 14 сентября 1812 он оказался в пустом городе, спаленном пожаром. В 1812 году Наполеон собирает 600-тысячную армию, состоящую из 24 различных национальностей. Вопреки предупреждениям своих советников, уверенный в победе император идет на Москву. По прошествии 172 дней, Наполеон отступает, оставляя позади 400 тысяч человек пленёнными, ранеными и убитыми. Этот фильм попытается ответить на вопрос: почему Наполеон решил завоевать Россию? И как такой великий полководец допустил столько стратегических ошибок? В фильме также рассказывается о том, каким Наполеона видела его армия, русские и монархи других государств.

Релиз от: alf62

Продолжительность: 2 х ~ 00:51:38
Качество видео: HDTVRip
Перевод: Дублированный

Видео: XviD, 720x368, ~1900 Kbps
Аудио: AC3, 2 ch, 192 Kbps

Список выпусков/серий:

1. Москва / The Moscova
2. Березина / The Berezina

Mediainfo:


Наполеон.Русская.кампания.(1.серия).Москва.2013.XviD.HDTVRip.alf62.avi
Формат : AVI
Формат/Информация : Audio Video Interleave
Размер файла : 776 Мбайт
Продолжительность : 51 м.
Общий поток : 2102 Кбит/сек
Программа кодирования : VirtualDubMod 1.5.10.3 | www.virtualdub-fr.org || (build 2550/release)
Библиотека кодирования : VirtualDubMod build 2550/release

Видео
Идентификатор : 0
Формат : MPEG-4 Visual
Профиль формата : Advanced Simple@L5
Параметр BVOP формата : 2
Параметр QPel формата : Нет
Параметр GMC формата : Без точки перехода
Параметр матрицы формата : Default (MPEG)
Идентификатор кодека : XVID
Идентификатор кодека/Подсказка : XviD
Продолжительность : 51 м.
Битрейт : 1900 Кбит/сек
Ширина : 720 пикселей
Высота : 368 пикселей
Соотношение сторон : 1,957
Частота кадров : 25,000 кадров/сек
Цветовое пространство : YUV
Субдискретизация насыщенности : 4:2:0
Битовая глубина : 8 бит
Тип развёртки : Прогрессивная
Метод сжатия : С потерями
Бит/(Пиксели*Кадры) : 0.287
Размер потока : 701 Мбайт (90%)
Библиотека кодирования : XviD 73

Аудио
Идентификатор : 1
Формат : AC-3
Формат/Информация : Audio Coding 3
Расширение режима : CM (complete main)
Параметр Endianness формата : Big
Идентификатор кодека : 2000
Продолжительность : 51 м.
Вид битрейта : Постоянный
Битрейт : 192 Кбит/сек
Каналы : 2 канала
Расположение каналов : Front: L R
Частота : 48,0 КГц
Битовая глубина : 16 бит
Метод сжатия : С потерями
Размер потока : 70,9 Мбайт (9%)
Выравнивание : Разделение по промежуткам
Продолжительность промежутка : 40 мс. (1,00 видеокадр)
Время предзагрузки промежутка : 500 мс
Скриншоты:

Дополнительные скриншоты:





Все одноименные релизы в Клубе
Детали торрента:
Название:Наполеон: Русская кампания 1812 года / Napoleon: the Russian campaign (2013) HDTVRip (Серии: 1-2 из 2)
Дата добавления:20 Апр 2017 10:23:33
Размер:1,5 GB
Раздают:1
Качают:0
Форум:История

All rights reserved © 2015-2019