TORRENTS45.XYZ

Скачать Wolfgang Amadeus Mozart - Symphonies 39, 40 & 41, Eine kleine Nachtmusik: Karajan, Berliner Philharmoniker (1966-1979) remastering 2003 [FLAC]<Classical>


Wolfgang Amadeus Mozart
Symphonies N 39, 40, 41 Serenades, Eine kleine Nachtmusik
Berlin Philharmonic Orchestra & Herbert von Karajan
(1970–1979)

Год: 1966–1978
Жанр: Classical
Продолжительность: 02:37:30

Кодек: FLAC
Битрейт: Lossless
Тип рипа: image+.cue
Производитель диска: Deutsche Grammophon
Номер по каталогу: 474272-2
CATALOG: 028947427223
Наличие сканов в содержимом раздачи: да

CD1 - 1966 Symphony No.39-41

Треклист:
01. Symphony No.39 in E flat, KV.543 Adagio-Allegro (08:18)
02. Symphony No.39 in E flat, KV.543 Andante con moto (08:16)
03. Symphony No.39 in E flat, KV.543 Menuetto (Allegretto) (04:08)
04. Symphony No.39 in E flat, KV.543 Finale (Allegro) (04:14)
05. Symphony No.40 in G minor, KV.550 Molto allegro (07:22)
06. Symphony No.40 in G minor, KV.550 Andante (07:48)
07. Symphony No.40 in G minor, KV.550 Menuetto (Allegretto)-Trio (04:41)
08. Symphony No.40 in G minor, KV.550 Finale (Allegro assai) (04:47)
09. Symphony No.41 in C, KV.551-'Jupiter' Allegro vivace (11:24)
10. Symphony No.41 in C, KV.551-'Jupiter' Andante cantabile (07:46)
11. Symphony No.41 in C, KV.551-'Jupiter' Menuetto (Allegretto) (05:10)
12. Symphony No.41 in C, KV.551-'Jupiter' Molto allegro (06:10)
Прoдолжительность: 01:20:04

Отчёт ЕАС:

Код:

Exact Audio Copy V0.99 prebeta 4 from 23. January 2008

EAC extraction logfile from 17. December 2009, 18:43

Herbert von Karajan / W. A. Mozart - Symphonien Nos. 39, 40, 41 Eine kleine Nachtmusik Serenata notturna

Used drive  : ASUS    DRW-2014S1T   Adapter: 3  ID: 0

Read mode               : Secure
Utilize accurate stream : Yes
Defeat audio cache      : Yes
Make use of C2 pointers : No

Read offset correction                      : 6
Overread into Lead-In and Lead-Out          : No
Fill up missing offset samples with silence : Yes
Delete leading and trailing silent blocks   : No
Null samples used in CRC calculations       : Yes
Used interface                              : Installed external ASPI interface

Used output format : Internal WAV Routines
Sample format      : 44.100 Hz; 16 Bit; Stereo

TOC of the extracted CD

     Track |   Start  |  Length  | Start sector | End sector
    ---------------------------------------------------------
        1  |  0:00.00 |  8:18.00 |         0    |    37349
        2  |  8:18.00 |  8:16.00 |     37350    |    74549
        3  | 16:34.00 |  4:08.00 |     74550    |    93149
        4  | 20:42.00 |  4:14.00 |     93150    |   112199
        5  | 24:56.00 |  7:22.00 |    112200    |   145349
        6  | 32:18.00 |  7:48.00 |    145350    |   180449
        7  | 40:06.00 |  4:41.00 |    180450    |   201524
        8  | 44:47.00 |  4:47.00 |    201525    |   223049
        9  | 49:34.00 | 11:24.00 |    223050    |   274349
       10  | 60:58.00 |  7:46.00 |    274350    |   309299
       11  | 68:44.00 |  5:10.00 |    309300    |   332549
       12  | 73:54.00 |  6:10.00 |    332550    |   360299

Range status and errors

Selected range

     Filename C:\темы торрента\Mozart\Karajan - Mozart-Symphonies Nos 39 40 41\Mozart-Symphonies Nos 39 40 41\CD1\Herbert von Karajan - W. A. Mozart - Symphonien Nos. 39, 40, 41 Eine kleine Nachtmusik Serenata notturna (CD1).wav

     Peak level 99.9 %
     Range quality 99.9 %
     Copy CRC A067C04D
     Copy OK

No errors occurred

AccurateRip summary

Track  1  cannot be verified as accurate (confidence 5)  [0035C2AD], AccurateRip returned [13C01FAA]
Track  2  cannot be verified as accurate (confidence 4)  [226D3A3C], AccurateRip returned [C551DEF6]
Track  3  cannot be verified as accurate (confidence 5)  [C15DB3BA], AccurateRip returned [1C96F941]
Track  4  cannot be verified as accurate (confidence 5)  [89552704], AccurateRip returned [05F0A96D]
Track  5  cannot be verified as accurate (confidence 5)  [3C4E56B8], AccurateRip returned [2F0AC04A]
Track  6  cannot be verified as accurate (confidence 4)  [B23F6A14], AccurateRip returned [B8D344C9]
Track  7  cannot be verified as accurate (confidence 5)  [AD0D684C], AccurateRip returned [62CA7DE5]
Track  8  cannot be verified as accurate (confidence 5)  [349339E7], AccurateRip returned [F3FB208D]
Track  9  cannot be verified as accurate (confidence 4)  [9FFB7D96], AccurateRip returned [6905B04A]
Track 10  cannot be verified as accurate (confidence 4)  [78F8312F], AccurateRip returned [7258AEF2]
Track 11  cannot be verified as accurate (confidence 4)  [4F482B26], AccurateRip returned [07B50465]
Track 12  cannot be verified as accurate (confidence 4)  [72438B7B], AccurateRip returned [7BFF3100]

No tracks could be verified as accurate
You may have a different pressing from the one(s) in the database

End of status report

Содержание индексной карты (*.cue):

Код:

REM EDIT CUESheet Editor for CA RipTools 21.01.2015 21:05:38
REM DATE 2003
REM GENRE Classical
REM DISCNUMBER 1
REM TOTALDISCS 2
REM PUBLISHER Deutsche Grammophon
REM PUBNUMBER 474272-2
REM COMMENT ExactAudioCopy v0.99pb4
    CATALOG 0028947427223
    PERFORMER "Herbert von Karajan"
    TITLE "CD1-W.A.Mozart-Symphonien Nos.39, 40, 41"
FILE "Karajan-Mozart-Symph.39, 40, 41 Eine kleine Nachtmusik(CD1).flac" WAVE
  TRACK 01 AUDIO
    TITLE "Symphony No.39 in E flat, KV.543 Adagio-Allegro"
    PERFORMER "Herbert von Karajan"
     INDEX 01 00:00:00
  TRACK 02 AUDIO
    TITLE "Symphony No.39 in E flat, KV.543 Andante con moto"
    PERFORMER "Herbert von Karajan"
     INDEX 01 08:18:00
  TRACK 03 AUDIO
    TITLE "Symphony No.39 in E flat, KV.543 Menuetto (Allegretto)"
    PERFORMER "Herbert von Karajan"
     INDEX 01 16:34:00
  TRACK 04 AUDIO
    TITLE "Symphony No.39 in E flat, KV.543 Finale (Allegro)"
    PERFORMER "Herbert von Karajan"
     INDEX 01 20:42:00
  TRACK 05 AUDIO
    TITLE "Symphony No.40 in G minor, KV.550 Molto allegro"
    PERFORMER "Herbert von Karajan"
     INDEX 00 24:48:00
     INDEX 01 24:56:00
  TRACK 06 AUDIO
    TITLE "Symphony No.40 in G minor, KV.550 Andante"
    PERFORMER "Herbert von Karajan"
     INDEX 01 32:18:00
  TRACK 07 AUDIO
    TITLE "Symphony No.40 in G minor, KV.550 Menuetto (Allegretto)-Trio"
    PERFORMER "Herbert von Karajan"
     INDEX 01 40:06:00
  TRACK 08 AUDIO
    TITLE "Symphony No.40 in G minor, KV.550 Finale (Allegro assai)"
    PERFORMER "Herbert von Karajan"
     INDEX 01 44:47:00
  TRACK 09 AUDIO
    TITLE "Symphony No.41 in C, KV.551-'Jupiter' Allegro vivace"
    PERFORMER "Herbert von Karajan"
     INDEX 00 49:25:00
     INDEX 01 49:34:00
  TRACK 10 AUDIO
    TITLE "Symphony No.41 in C, KV.551-'Jupiter' Andante cantabile"
    PERFORMER "Herbert von Karajan"
     INDEX 01 60:58:00
  TRACK 11 AUDIO
    TITLE "Symphony No.41 in C, KV.551-'Jupiter' Menuetto (Allegretto)"
    PERFORMER "Herbert von Karajan"
     INDEX 01 68:44:00
  TRACK 12 AUDIO
    TITLE "Symphony No.41 in C, KV.551-'Jupiter' Molto allegro"
    PERFORMER "Herbert von Karajan"
     INDEX 01 73:54:00

Отчёт auCDtect Task manager:

Код:

-----------------------

DON'T MODIFY THIS FILE

-----------------------

PERFORMER: auCDtect Task Manager, ver. 1.6.0 RC1 build 1.6.0.1
Copyright (c) 2008-2010 y-soft. All rights reserved
http://y-soft.org

ANALYZER: auCDtect: CD records authenticity detector, version 0.8.2
Copyright (c) 2004 Oleg Berngardt. All rights reserved.
Copyright (c) 2004 Alexander Djourik. All rights reserved.

FILE: Karajan-Mozart-Symph.39, 40, 41 Eine kleine Nachtmusik(CD1).flac
  Size: 385101212 Hash: 152ACE83087BC483D49234B26B0ECEEF Accuracy: -m0
  Conclusion: CDDA 100%
  Signature: E602C0A87B0222B4C8B937CF82EBA4B2B3261FBF

CD2 - 1979 Eine kleine Nachtmusik, Divertimento & Serenata notturna

Треклист:
01. Serenade in G, KV.525 'Eine kleine Nachtmusik' Allegro (05:21)
02. Serenade in G, KV.525 'Eine kleine Nachtmusik' Romance (Andante) (05:32)
03. Serenade in G, KV.525 'Eine kleine Nachtmusik' Menuetto (Allegretto) (02:21)
04. Serenade in G, KV.525 'Eine kleine Nachtmusik' Rondo (Allegro) (03:16)
05. Divertimento in D, KV.334 Orchestral Version Allegro (07:05)
06. Divertimento in D, KV.334 Orchestral Version Thema mit Variationen (Andante) (08:46)
07. Divertimento in D, KV.334 Orchestral Version Menuetto-Trio-Menuetto (06:00)
08. Divertimento in D, KV.334 Orchestral Version Adagio (08:01)
09. Divertimento in D, KV.334 Orchestral Menuetto-Trio I-Menuetto-Trio II-... (09:34)
10. Divertimento in D, KV.334 Orchestral Version Rondo (Allegro) (08:39)
11. Serenata notturna in D, KV.239 Marcia (Maestoso) (03:02)
12. Serenata notturna in D, KV.239 Menuetto-Trio (05:02)
13. Serenata notturna in D, KV.239 Rondeau (Allegretto-Adagio-Allegro) (04:46)
Прoдолжительность: 01:17:28

Отчёт ЕАС:

Код:

Exact Audio Copy V0.99 prebeta 4 from 23. January 2008

EAC extraction logfile from 17. December 2009, 19:02

Herbert von Karajan / W. A. Mozart - Symphonien Nos. 39, 40, 41 Eine kleine Nachtmusik Serenata notturna (CD2)

Used drive  : ASUS    DRW-2014S1T   Adapter: 3  ID: 0

Read mode               : Secure
Utilize accurate stream : Yes
Defeat audio cache      : Yes
Make use of C2 pointers : No

Read offset correction                      : 6
Overread into Lead-In and Lead-Out          : No
Fill up missing offset samples with silence : Yes
Delete leading and trailing silent blocks   : No
Null samples used in CRC calculations       : Yes
Used interface                              : Installed external ASPI interface

Used output format : Internal WAV Routines
Sample format      : 44.100 Hz; 16 Bit; Stereo

TOC of the extracted CD

     Track |   Start  |  Length  | Start sector | End sector
    ---------------------------------------------------------
        1  |  0:00.00 |  5:21.01 |         0    |    24075
        2  |  5:21.01 |  5:32.00 |     24076    |    48975
        3  | 10:53.01 |  2:21.74 |     48976    |    59624
        4  | 13:15.00 |  3:16.00 |     59625    |    74324
        5  | 16:31.00 |  7:05.00 |     74325    |   106199
        6  | 23:36.00 |  8:46.00 |    106200    |   145649
        7  | 32:22.00 |  6:00.01 |    145650    |   172650
        8  | 38:22.01 |  8:01.00 |    172651    |   208725
        9  | 46:23.01 |  9:34.00 |    208726    |   251775
       10  | 55:57.01 |  8:39.74 |    251776    |   290774
       11  | 64:37.00 |  3:02.01 |    290775    |   304425
       12  | 67:39.01 |  5:02.00 |    304426    |   327075
       13  | 72:41.01 |  4:47.00 |    327076    |   348600

Range status and errors

Selected range

     Filename C:\темы торрента\Mozart\Karajan - Mozart-Symphonies Nos 39 40 41\Mozart-Symphonies Nos 39 40 41\CD2\Herbert von Karajan - W. A. Mozart - Symphonien Nos. 39, 40, 41 Eine kleine Nachtmusik Serenata notturna (CD2).wav

     Peak level 90.1 %
     Range quality 100.0 %
     Copy CRC C86E9F00
     Copy OK

No errors occurred

AccurateRip summary

Track  1  cannot be verified as accurate (confidence 4)  [0972AFDF], AccurateRip returned [3BD62047]
Track  2  cannot be verified as accurate (confidence 3)  [855DE53D], AccurateRip returned [C9493187]
Track  3  cannot be verified as accurate (confidence 3)  [53C5A663], AccurateRip returned [1E8B9E20]
Track  4  cannot be verified as accurate (confidence 4)  [AE4B9EA4], AccurateRip returned [0D33D3F1]
Track  5  cannot be verified as accurate (confidence 3)  [9490515B], AccurateRip returned [E09A539E]
Track  6  cannot be verified as accurate (confidence 4)  [5768767D], AccurateRip returned [87507DAF]
Track  7  cannot be verified as accurate (confidence 3)  [B50D7AF1], AccurateRip returned [A8C7DD6D]
Track  8  cannot be verified as accurate (confidence 3)  [CEBE4F0D], AccurateRip returned [8ECABFED]
Track  9  cannot be verified as accurate (confidence 3)  [E5B94FEA], AccurateRip returned [58F68509]
Track 10  cannot be verified as accurate (confidence 3)  [90095F03], AccurateRip returned [94B6213A]
Track 11  cannot be verified as accurate (confidence 4)  [EB9E164D], AccurateRip returned [CCBEC3E7]
Track 12  cannot be verified as accurate (confidence 3)  [31CB81C4], AccurateRip returned [C5F80FAC]
Track 13  cannot be verified as accurate (confidence 3)  [7BED5525], AccurateRip returned [0322467C]

No tracks could be verified as accurate
You may have a different pressing from the one(s) in the database

End of status report

Содержание индексной карты (*.cue):

Код:

REM EDIT CUESheet Editor for CA RipTools 21.01.2015 22:02:24
REM DATE 2003
REM GENRE Classical
REM DISCNUMBER 2
REM TOTALDISCS 2
REM PUBLISHER Deutsche Grammophon
REM PUBNUMBER 474272-2
REM COMMENT ExactAudioCopy v0.99pb4
    CATALOG 0028947427223
    PERFORMER "Herbert von Karajan"
    TITLE "CD2-Mozart-Symph.39, 40, 41 Eine kleine Nachtmusik"
FILE "Karajan-Mozart-Symph.39, 40, 41 Eine kleine Nachtmusik (CD2).flac" WAVE
  TRACK 01 AUDIO
    TITLE "Serenade in G, KV.525 'Eine kleine Nachtmusik' Allegro"
    PERFORMER "Herbert von Karajan"
     INDEX 01 00:00:00
  TRACK 02 AUDIO
    TITLE "Serenade in G, KV.525 'Eine kleine Nachtmusik' Romance (Andante)"
    PERFORMER "Herbert von Karajan"
     INDEX 01 05:21:01
  TRACK 03 AUDIO
    TITLE "Serenade in G, KV.525 'Eine kleine Nachtmusik' Menuetto (Allegretto)"
    PERFORMER "Herbert von Karajan"
     INDEX 01 10:53:01
  TRACK 04 AUDIO
    TITLE "Serenade in G, KV.525 'Eine kleine Nachtmusik' Rondo (Allegro)"
    PERFORMER "Herbert von Karajan"
     INDEX 01 13:15:00
  TRACK 05 AUDIO
    TITLE "Divertimento in D, KV.334 Orchestral Version Allegro"
    PERFORMER "Herbert von Karajan"
     INDEX 00 16:23:00
     INDEX 01 16:31:00
  TRACK 06 AUDIO
    TITLE "Divertimento in D, KV.334 Orchestral Version Thema mit Variationen (Andante)"
    PERFORMER "Herbert von Karajan"
     INDEX 01 23:36:00
  TRACK 07 AUDIO
    TITLE "Divertimento in D, KV.334 Orchestral Version Menuetto-Trio-Menuetto"
    PERFORMER "Herbert von Karajan"
     INDEX 01 32:22:00
  TRACK 08 AUDIO
    TITLE "Divertimento in D, KV.334 Orchestral Version Adagio"
    PERFORMER "Herbert von Karajan"
     INDEX 01 38:22:01
  TRACK 09 AUDIO
    TITLE "Divertimento in D, KV.334 Orchestral Menuetto-Trio I-Menuetto-Trio II-..."
    PERFORMER "Herbert von Karajan"
     INDEX 01 46:23:01
  TRACK 10 AUDIO
    TITLE "Divertimento in D, KV.334 Orchestral Version Rondo (Allegro)"
    PERFORMER "Herbert von Karajan"
     INDEX 01 55:57:01
  TRACK 11 AUDIO
    TITLE "Serenata notturna in D, KV.239 Marcia (Maestoso)"
    PERFORMER "Herbert von Karajan"
     INDEX 00 64:30:00
     INDEX 01 64:37:00
  TRACK 12 AUDIO
    TITLE "Serenata notturna in D, KV.239 Menuetto-Trio"
    PERFORMER "Herbert von Karajan"
     INDEX 01 67:39:01
  TRACK 13 AUDIO
    TITLE "Serenata notturna in D, KV.239 Rondeau (Allegretto-Adagio-Allegro)"
    PERFORMER "Herbert von Karajan"
     INDEX 01 72:41:01

Отчёт auCDtect Task manager:

Код:

-----------------------

DON'T MODIFY THIS FILE

-----------------------

PERFORMER: auCDtect Task Manager, ver. 1.6.0 RC1 build 1.6.0.1
Copyright (c) 2008-2010 y-soft. All rights reserved
http://y-soft.org

ANALYZER: auCDtect: CD records authenticity detector, version 0.8.2
Copyright (c) 2004 Oleg Berngardt. All rights reserved.
Copyright (c) 2004 Alexander Djourik. All rights reserved.

FILE: Karajan-Mozart-Symph.39, 40, 41 Eine kleine Nachtmusik (CD2).flac
  Size: 386845828 Hash: 4AD75E168EE8DFFB58C3CC48566D2CA8 Accuracy: -m0
  Conclusion: CDDA 99%
  Signature: EA7673ED95D9FFF464D3CF7AC2E3EFC6B256BB43

Дополнительная информация:

Back

Герберт фон Караян (нем. Herbert von Karajan; 1908—1989) — австрийский дирижёр. Работал с Берлинским филармоническим оркестром на протяжении 35 лет. Оставил после себя одну из самых обширных дискографий.

Дирижер: Herbert von Karajan

Биография:
Детство и молодость:
Герберт фон Караян родился в Зальцбурге в семье потомка эмигрантов греческого происхождения из греческой провинции Македония, при рождении был наречён Херибертом. Документально фамилия Караян в форме «Караяннис» впервые упоминается в 1743 году в греческом городе Козани. В 1792 году его прапрадед, грек Георгий Караяннис, являвшийся крупным торговцем в саксонском городе Хемнице, получил от курфюрста Фридриха Августа III рыцарский титул — риттер,одновременно укоротив фамилию на немецкий манер. Поэтому полное имя фон Караяна при рождении — рыцарь Хериберт фон Караян (нем. Heribert Ritter von Karajan).

С 1916 года по 1926 год учился в консерватории Моцартеум в Зальцбурге, где получил импульс к изучению искусства дирижирования.

В 1929 году продирижировал оперой Рихарда Штрауса «Саломея» в Фестивальном театре Зальцбурга.

С 1929 по 1934 год был первым капельмейстером в городском театре города Ульма в Германии.

В 1933 состоялся его дебют на Зальцбургском фестивале, где он продирижировал музыкой к «Вальпургиевой ночи» из оперы «Фауст» Шарля Гуно в постановке Макса Райнхардта. В следующем году там же, в Зальцбурге, впервые встал за пульт Венского филармонического оркестра.

С 1934 года по 1941 год дирижировал оперными спектаклями и симфоническими концертами в оперном театре Ахена.

В 1935 году фон Караян стал самым молодым Генеральным музыкальным директором (нем. Generalmusikdirektor) Германии, выступал в качестве приглашенного дирижера в Брюсселе, Стокгольме, Амстердаме и других городах.

В 1937 году состоялось первое выступление фон Караяна с Берлинским филармоническим оркестром и в Берлинском государственном оперном театре в опере Бетховена «Фиделио». Огромный успех в 1938 году получило его исполнение оперы Рихарда Вагнера «Тристан и Изольда», берлинская критика назвала его «Чудо-Караян» (нем. Das Wunder Karajan). Он заключил контракт со звукозаписывающей компанией «Дойче Граммофон», первой записью стала увертюра к опере Моцарта «Волшебная флейта» с Берлинской государственной капеллой.

Послевоенные годы:
В 1946 году в Вене с Венским филармоническим оркестром состоялся первый послевоенный концерт Караяна. Затем советские власти наложили запрет на его выступления в качестве дирижера вследствие его членства в НСДАП. Летом этого года он анонимно участвовал в работе Зальцбургского фестиваля. В следующем году ему было разрешено возобновить работу в качестве дирижера.

В 1948 году Караян стал художественным руководителем Общества друзей музыки (нем. Gesellschaft der Musikfreunde) в Вене. Дирижировал также в оперном театре «Ла Скала» в Милане. Однако самой значительной в этот период была его работа с недавно созданным оркестром «Филармония» в Лондоне. Благодаря ему этот оркестр вошел в число лучших оркестров мира.

В 1951 и 1952 годах дирижировал спектаклями в Байройтском оперном театре.

В 1955 был назначен пожизненным музыкальным руководителем Берлинского филармонического оркестра как преемник Вильгельма Фуртвенглера. С 1957 по 1964 год являлся художественным директором Венской государственной оперы, был тесно связан с Венским филармоническим оркестром и Зальцбургским фестивалем, где он основал Пасхальный фестиваль. Продолжал дирижировать и записываться вплоть до своей смерти в 1989 году.

Караян и звукозапись:

Герберт фон Караян сыграл важную роль в закреплении формата цифровой аудиозаписи на компакт-диски (около 1980). Он способствовал признанию этой новой технологии воспроизведения звука своим авторитетом — в апреле 1980 года участвовал в первой пресс-конференции, посвящённой выпуску цифровых аудиозаписей на компакт-дисках, вместе с президентом компании «Sony» Акио Морита, а в 1987 году присутствовал при открытии первого в Европе завода по производству дисков, совместно с Норио Ога. Первые прототипы компакт-дисков были ограничены временем звучания 60 минут. Часто утверждается, что закрепленный стандарт времени звучания 74 минуты был достигнут для того, чтобы вместить Девятую симфонию Бетховена, а существовавший на тот момент архив записей Караяна и его явным образом выраженные пожелания сыграли значительную роль в принятии решения увеличить максимальное время звучания компакт-диска. Однако, вполне возможно, что эта история является лишь своего рода легендой.

Членство в НСДАП:
В 1933 году фон Караян вступил в Национал-социалистическую партию; это произошло 8 апреля 1933 года в Зальцбурге спустя два месяца после прихода к власти Адольфа Гитлера в Германии. Как и в случае с сопрано Элизабет Шварцкопф, членство Караяна в нацистской партии в период с 1933 по 1945 годы создало ему нелестную репутацию. Попытки Караяна отрицать свою партийную принадлежность были опровергнуты документально. По словам Нормана Лебрехта, «выросший в Зальцбурге во время и после Первой мировой войны, Караян отчаянно пытался сделать карьеру еще до того, как Гитлер захватил власть в Германии. С изгнанием еврейских и левых музыкантов двадцатисемилетний Караян стал музыкальным директором в Рейхе – «Чудо-Караяном», как в 1938 году озаглавил свою статью Геббельс.
Описание:
Караян крайне удачно вписался в контекст новой Германии – белокурый, с резкими чертами лица и пронзительным взглядом, он служил рекламным лицом нацистской культуры...» Любимец Геринга и Геббельса, Караян открывал многие свои выступления «Хорстом Весселем». Такие музыканты, как Исаак Стерн и Ицхак Перлман отказывались играть в одних концертах с Караяном.


Творчество:
Американский критик Харви Закс дает следующий критический отзыв о его творческой манере:

Кажется, Караян сделал выбор в пользу универсального, очень утончённого, лакированного, выверенно-чувственного звука, который можно применить с незначительными стилистическими отклонениями, которые он полагал необходимыми, к Баху и Пуччини, Моцарту и Малеру, Бетховену и Вагнеру, Шуману и Стравинскому… многие из его исполнений были «запрограммированными» и искусственными, такие никогда не встретишь у Тосканини, Фуртвенглера и других великих… большая часть записей Караяна преувеличенно «отполирована», являя собой некий звуковой аналог фильмов и фотографий Лени Рифеншталь.

Караяна критиковали за то, что из всей музыки XX века он исполнял и записывал за редким исключением лишь те произведения, которые были написаны до 1945 года (Густава Малера, Арнольда Шёнберга, Альбана Берга, Веберна, Бартока, Яна Сибелиуса, Рихарда Штрауса, Джакомо Пуччини, Ильдебрандо Пицетти, Артура Онеггера, Сергея Прокофьева, Клода Дебюсси, Пауля Хиндемита, Карла Нильсена и Игоря Стравинского), хотя он записал Симфонию № 10 Дмитрия Шостаковича (1953) дважды, а также исполнил премьеру «Комедии на конец времен» («De Temporum Fine Comoedia») Карла Орфа в 1973.

По результатам опроса, проведённого в ноябре 2010 года британским журналом о классической музыке BBC Music Magazine среди ста дирижёров из разных стран, среди которых такие музыканты, как Колин Дэвис (Великобритания), Евгений Мравинский (Россия), Густаво Дудамель (Венесуэла), Марис Янсонс (Латвия), Герберт фон Караян занял четвёртое место в списке из двадцати наиболее выдающихся дирижёров всех времён.

Поведение за пультом:
Некоторые критики, в особенности британский критик Норман Лебрехт, вменяют Караяну в вину то, что он раскрутил разрушительную инфляционную спираль, требуя огромных гонораров за исполнение. Во время пребывания в должности в качестве директора исполнительских организаций, финансируемых за счет общественных средств, таких как Венский филармонический оркестр, Берлинский филармонический оркестр и Зальцбургский фестиваль, он начал платить приглашенным звездам заоблачные гонорары, а также комментировать размер своего собственного вознаграждения:

С тех пор, как он получил в свое распоряжение оркестры, он заставлял их записывать диски, а также вплоть до своей смерти повторно записывал свои любимые произведения при возникновении новых технологий (цифровые LP, CD, видеопленки, лазерные диски). В дополнение к созданию трудностей для других дирижеров при записях с его оркестрами, Караян также непомерно увеличивал выплаты себе гонораров.

Во время записи бетховенского Тройного концерта с Давидом Ойстрахом, Святославом Рихтером и Мстиславом Ростроповичем, Рихтер попросил Караяна сделать еще один дубль, на что Караян ответил: «Нет, нет, у нас нет времени, нам еще нужно сфотографироваться». Это не помешало Ойстраху сказать о Караяне, когда последнему исполнилось 65, что он является «величайшим из ныне живущих дирижеров, мастером в любом стиле».

Наконец, необходимо отметить эксцентричность Караяна. Когда он дирижировал Вагнером в Метрополитен опера, он поднял дирижерский подиум, чтобы быть на виду у публики; в Вердиевских оперных записях он изменял баланс звучания оркестра, перенося работу со звуком на стадию монтажа. Критики сравнивали его с Леонардом Бернстайном, указывая, что оба дирижера «были непревзойденными мастерами устраивать театральный спектакль на подиуме». В действительности, при работе с хорошо изученными им берлинскими филармоническими музыкантами экономичностью своих жестов он часто напоминал Фрица Райнера. Также он часто дирижировал с закрытыми глазами, уверенный в том, что под его управлением находится один из величайших оркестров новейшей эры. В одном он был схож с Бернстайном: если ему не слишком нравилось сочинение — а в «не немецкой» музыке было очень много произведений, которым он не симпатизировал, — это было слишком явно видно в его подходе к исполнению этого произведения.

YouTube

Herbert von Karajan на nnm.club:

Детали торрента:
Название:Wolfgang Amadeus Mozart - Symphonies 39, 40 & 41, Eine kleine Nachtmusik: Karajan, Berliner Philharmoniker (1966-1979) remastering 2003 [FLAC]<Classical>
Дата добавления:01 Фев 2015 19:52:17
Размер:748 MB
Раздают:1
Качают:0
Форум:Оркестровая (Lossless)

All rights reserved © 2015-2018