TORRENTS45.XYZ

Скачать Тачки 2 / Cars 2 (2011) BDRip [1080p] ATV


Тачки 2 / Cars 2 (2011) BDRip [1080p] ATV

Производство: США / © 2011 Disney/Pixar
Жанр: мультфильм, комедия, приключения, семейный

Режиссер: Джон Лассетер, Брэд Льюис
Сценарий: Бен Квин, Джон Лассетер, Брэд Льюис
Продюсер: Денис Рим, Марк Нилсен
Актеры: Оуэн Уилсон, Ларри Кейбл Гай, Майкл Кейн, Эмили Мортимер, Эдди Иззард, Джон Туртурро, Брент Мусбургер, Джо Мантенья, Томас Кречманн, Питер Джекобсон

Описание фильма:
Молния МакКуин и его друг Мэтр отправляются в международное путешествие — когда МакКуин получает шанс участвовать в соревнованиях для самых быстрых машин в мире, Мировом Гран-При. Этапы этих престижных гонок заведут друзей в Токио, на набережные Парижа, на побережье Италии, и на улицы туманного Лондона.

Перевод: Дублированный
Вид субтитров: Вшитые отключаемые
Язык субтитров: Английский (full, commentary J.Lasseter)



Дата мировой премьеры: 18 июня 2011

Продолжительность: 01:47:01
Качество: BDRip [1080p]

Видео: MPEG-4 AVC/H.264, 1920x802 (2.39:1), 8 016 Kbps, 23.976 fps
Аудио #1: Русский - AAC / 2.0 / 170 Kbps / 48.0 KHz - Дублированный
Аудио #2: Русский - AC3 / 5.1 / 448 Kbps / 48.0 KHz - Дублированный
Аудио #3: Английский - AAC / 2.0 / 170 Kbps / 48.0 KHz - Оригинальный
Аудио #4: Английский - AC3 / 5.1 / 448 Kbps / 48.0 KHz - Оригинальный
Аудио #5: Английский - AC3 / 2.0 / 320 Kbps / 48.0 KHz - Commentary with director of Cars 2 John Lasseter

iTunes Meta Tags

Код:

Sort Name: Cars 2
XID: Apple:vendor_id:2011-409013
Content ID: 450754772
Copyright: © 2011 Disney/Pixar
ScreenWriters: Бен Квин, Джон Лассетер, Брэд Льюис
Producers: Денис Рим, Марк Нилсен
Director: Джон Лассетер, Брэд Льюис
Cast: Owen Wilson (Lightning McQueen (voice)), Michael Caine (Finn McMissile (voice)), Emily Mortimer (Holley Shiftwell (voice)), Michael Keaton (Chick Hicks (voice)), Jason Isaacs (Siddeley (voice)), Bonnie Hunt (Sally Carrera (voice)), John Ratzenberger (Mack (voice)), Tony Shalhoub (Luigi (voice)), Larry the Cable Guy (Mater (voice)), Eddie Izzard (Sir Miles Axlerod (voice)) /Оуэн Уилсон, Ларри Кейбл Гай, Майкл Кейн, Эмили Мортимер, Эдди Иззард, Джон Туртурро, Брент Мусбургер, Джо Мантенья, Томас Кречман, Питер Джекобсон
Rating: G
Long Description: Молния МакКуин и его друг Мэтр отправляются в международное путешествие - когда МакКуин получает шанс участвовать в соревнованиях для самых быстрых машин в мире, Мировом Гран-При. Этапы этих престижных гонок заведут друзей в Токио, на набережные Парижа, на побережье Италии, и на улицы туманного Лондона
Description: Молния МакКуин и его друг Мэтр отправляются в международное путешествие - когда МакКуин получает шанс участвовать в соревнованиях для самых быстрых машин в мире, Мировом Гран-При. Этапы этих престижных гонок заведут друзей в Токио, на набережные Пари
Release Date: 2011-06-24T07:00:00Z
Genre: Kids & Family
Artist: Pixar
Name: Тачки 2

MediaInfo

Код:

General
Complete name               : I:\mod\out\Cars 2 (2011) (1080p HD).m4v
Format                      : MPEG-4
Codec ID                    : M4V
File size                   : 7.11 GiB
Duration                    : 1h 46mn
Overall bit rate mode       : Variable
Overall bit rate            : 9 581 Kbps
Movie name                  : Тачки 2
Performer                   : Pixar
Director                    : Джон Лассетер / Брэд Льюис
Actor                       : Owen Wilson (Lightning McQueen (voice)) / Michael Caine (Finn McMissile (voice)) / Emily Mortimer (Holley Shiftwell (voice)) / Michael Keaton (Chick Hicks (voice)) / Jason Isaacs (Siddeley (voice)) / Bonnie Hunt (Sally Carrera (voice)) / John Ratzenberger (Mack (voice)) / Tony Shalhoub (Luigi (voice)) / Larry the Cable Guy (Mater (voice)) / Eddie Izzard (Sir Miles Axlerod (voice)) /Оуэн Уилсон / Ларри Кейбл Гай / Майкл Кейн / Эмили Мортимер / Эдди Иззард / Джон Туртурро / Брент Мусбургер / Джо Мантенья / Томас Кречман / Питер Джекобсон
Screenplay by               : Бен Квин / Джон Лассетер / Брэд Льюис
Producer                    : Денис Рим / Марк Нилсен
Genre                       : Kids & Family
ContentType                 : Short Film
Description                 : Молния МакКуин и его друг Мэтр отправляются в международное путешествие - когда МакКуин получает шанс участвовать в соревнованиях для самых быстрых машин в мире, Мировом Гран-При. Этапы этих престижных гонок заведут друзей в Токио, на набережные Пари
Recorded date               : UTC 2011-06-24 07:00:00
Encoded date                : UTC 2015-01-27 18:10:01
Tagged date                 : UTC 2015-01-27 18:26:11
Copyright                   : © 2011 Disney/Pixar
Cover                       : Yes
ContentRating               : mpaa|G|100|
Title/Sort                  : Cars 2
LongDescription             : Молния МакКуин и его друг Мэтр отправляются в международное путешествие - когда МакКуин получает шанс участвовать в соревнованиях для самых быстрых машин в мире, Мировом Гран-При. Этапы этих престижных гонок заведут друзей в Токио, на набережные Парижа, на побережье Италии, и на улицы туманного Лондона
AppleStoreCatalogID         : 450754772
Vendor                      : Apple:vendor_id:2011-409013

Video
ID                          : 1
Format                      : AVC
Format/Info                 : Advanced Video Codec
Format profile              : High@L4.1
Format settings, CABAC      : Yes
Format settings, ReFrames   : 5 frames
Codec ID                    : avc1
Codec ID/Info               : Advanced Video Coding
Duration                    : 1h 46mn
Bit rate                    : 8 016 Kbps
Maximum bit rate            : 48.9 Mbps
Width                       : 1 920 pixels
Height                      : 802 pixels
Display aspect ratio        : 2.40:1
Frame rate mode             : Constant
Frame rate                  : 23.976 fps
Color space                 : YUV
Chroma subsampling          : 4:2:0
Bit depth                   : 8 bits
Scan type                   : Progressive
Bits/(Pixel*Frame)          : 0.217
Stream size                 : 5.95 GiB (84%)
Language                    : English
Encoded date                : UTC 2015-01-27 18:10:01
Tagged date                 : UTC 2015-01-27 18:11:21
Color primaries             : BT.709
Transfer characteristics    : BT.709
Matrix coefficients         : BT.709
Color range                 : Limited

Audio #1
ID                          : 2
Format                      : AAC
Format/Info                 : Advanced Audio Codec
Format profile              : LC
Codec ID                    : 40
Duration                    : 1h 46mn
Bit rate mode               : Variable
Bit rate                    : 165 Kbps
Maximum bit rate            : 208 Kbps
Channel(s)                  : 2 channels
Channel positions           : Front: L R
Sampling rate               : 48.0 KHz
Compression mode            : Lossy
Stream size                 : 126 MiB (2%)
Title                       : AAC DUB / AAC DUB
Language                    : Russian
Encoded date                : UTC 2015-01-27 18:01:16
Tagged date                 : UTC 2015-01-27 18:11:21

Audio #2
ID                          : 3
Format                      : AC-3
Format/Info                 : Audio Coding 3
Mode extension              : CM (complete main)
Format settings, Endianness : Big
Codec ID                    : ac-3
Duration                    : 1h 46mn
Bit rate mode               : Constant
Bit rate                    : 448 Kbps
Channel(s)                  : 6 channels
Channel positions           : Front: L C R, Side: L R, LFE
Sampling rate               : 48.0 KHz
Bit depth                   : 16 bits
Compression mode            : Lossy
Stream size                 : 341 MiB (5%)
Title                       : AC3 DUB / AC3 DUB
Language                    : Russian
Encoded date                : UTC 2015-01-27 18:11:06
Tagged date                 : UTC 2015-01-27 18:11:21

Audio #3
ID                          : 4
Format                      : AAC
Format/Info                 : Advanced Audio Codec
Format profile              : LC
Codec ID                    : 40
Duration                    : 1h 46mn
Bit rate mode               : Variable
Bit rate                    : 170 Kbps
Maximum bit rate            : 211 Kbps
Channel(s)                  : 2 channels
Channel positions           : Front: L R
Sampling rate               : 48.0 KHz
Compression mode            : Lossy
Stream size                 : 129 MiB (2%)
Title                       : AAC original / AAC original
Language                    : English
Encoded date                : UTC 2015-01-27 18:07:27
Tagged date                 : UTC 2015-01-27 18:11:21

Audio #4
ID                          : 5
Format                      : AC-3
Format/Info                 : Audio Coding 3
Mode extension              : CM (complete main)
Format settings, Endianness : Big
Codec ID                    : ac-3
Duration                    : 1h 46mn
Bit rate mode               : Constant
Bit rate                    : 448 Kbps
Channel(s)                  : 6 channels
Channel positions           : Front: L C R, Side: L R, LFE
Sampling rate               : 48.0 KHz
Bit depth                   : 16 bits
Compression mode            : Lossy
Stream size                 : 341 MiB (5%)
Title                       : AC3 original / AC3 original
Language                    : English
Encoded date                : UTC 2015-01-27 18:11:13
Tagged date                 : UTC 2015-01-27 18:11:21

Audio #5
ID                          : 6
Format                      : AC-3
Format/Info                 : Audio Coding 3
Mode extension              : CM (complete main)
Format settings, Endianness : Big
Codec ID                    : ac-3
Duration                    : 1h 46mn
Bit rate mode               : Constant
Bit rate                    : 320 Kbps
Channel(s)                  : 2 channels
Channel positions           : Front: L R
Sampling rate               : 48.0 KHz
Bit depth                   : 16 bits
Compression mode            : Lossy
Stream size                 : 243 MiB (3%)
Title                       : Commentary with director of Cars 2 John Lasseter / Commentary with director of Cars 2 John Lasset
Language                    : English
Encoded date                : UTC 2015-01-27 18:11:17
Tagged date                 : UTC 2015-01-27 18:11:21

Text #1
ID                          : 7
Format                      : Timed Text
Muxing mode                 : sbtl
Codec ID                    : tx3g
Duration                    : 1h 38mn
Bit rate mode               : Variable
Bit rate                    : 102 bps
Stream size                 : 73.5 KiB (0%)
Title                       : full / full
Language                    : English
Encoded date                : UTC 2015-01-27 18:11:21
Tagged date                 : UTC 2015-01-27 18:11:21

Text #2
ID                          : 8
Format                      : Timed Text
Muxing mode                 : sbtl
Codec ID                    : tx3g
Duration                    : 18mn 0s
Bit rate mode               : Variable
Bit rate                    : 87 bps
Stream size                 : 11.5 KiB (0%)
Title                       : cartions / cartions
Language                    : English
Encoded date                : UTC 2015-01-27 18:11:21
Tagged date                 : UTC 2015-01-27 18:11:21

Text #3
ID                          : 9
Format                      : Timed Text
Muxing mode                 : sbtl
Codec ID                    : tx3g
Duration                    : 1h 42mn
Bit rate mode               : Variable
Bit rate                    : 127 bps
Stream size                 : 94.7 KiB (0%)
Title                       : Commentary with director of Cars 2 John Lasseter / Commentary with director of Cars 2 John Lasset
Language                    : English
Encoded date                : UTC 2015-01-27 18:11:21
Tagged date                 : UTC 2015-01-27 18:11:21

Menu
ID                          : 10
Codec ID                    : text
Duration                    : 1h 46mn
Encoded date                : UTC 2015-01-27 18:12:21
Tagged date                 : UTC 2015-01-27 18:12:21
Bit rate mode               : CBR
00:00:00.000                : 00:00:00.000
00:01:29.172                : 00:01:29.172
00:04:47.578                : 00:04:47.578
00:07:43.671                : 00:07:43.671
00:12:07.893                : 00:12:07.893
00:17:48.942                : 00:17:48.942
00:20:01.324                : 00:20:01.324
00:22:51.536                : 00:22:51.536
00:26:34.634                : 00:26:34.634
00:30:30.161                : 00:30:30.161
00:32:41.959                : 00:32:41.959
00:34:13.509                : 00:34:13.509
00:37:15.566                : 00:37:15.566
00:40:44.149                : 00:40:44.149
00:42:53.153                : 00:42:53.153
00:46:18.567                : 00:46:18.567
00:46:57.939                : 00:46:57.939
00:49:48.526                : 00:49:48.526
00:53:56.399                : 00:53:56.399
00:54:57.251                : 00:54:57.251
00:57:36.202                : 00:57:36.202
00:59:27.730                : 00:59:27.730
01:02:16.941                : 01:02:16.941
01:05:56.285                : 01:05:56.285
01:12:31.763                : 01:12:31.763
01:14:05.899                : 01:14:05.899
01:15:24.185                : 01:15:24.185
01:21:12.992                : 01:21:12.992
01:23:22.246                : 01:23:22.246
01:29:06.924                : 01:29:06.924
01:31:48.126                : 01:31:48.126
01:32:41.221                : 01:32:41.221
01:38:18.600                : 01:38:18.600

x264 лог

Код:

x264 [info]: frame I:1755  Avg QP:13.20  size:260037
x264 [info]: frame P:47260 Avg QP:17.04  size: 78534
x264 [info]: frame B:103867 Avg QP:19.11  size: 21384
x264 [info]: consecutive B-frames:  6.1%  6.5% 34.1% 24.2% 14.2% 15.0%
x264 [info]: mb I  I16..4: 12.3% 59.3% 28.4%
x264 [info]: mb P  I16..4:  3.3% 15.6%  3.2%  P16..4: 26.8% 30.1% 13.2%  0.0%  0.0%    skip: 7.8%
x264 [info]: mb B  I16..4:  0.8%  2.7%  0.6%  B16..8: 28.8% 16.1%  2.6%  direct: 4.8%  skip:43.6%  L0:37.4% L1:44.0% BI:18.5%
x264 [info]: 8x8 transform intra:68.6% inter:50.4%
x264 [info]: direct mvs  spatial:97.7% temporal:2.3%
x264 [info]: coded y,uvDC,uvAC intra: 71.7% 76.2% 54.2% inter: 20.5% 25.4% 15.8%
x264 [info]: i16 v,h,dc,p: 15% 26% 14% 45%
x264 [info]: i8 v,h,dc,ddl,ddr,vr,hd,vl,hu: 14% 27% 14%  5%  6%  6%  9%  7% 12%
x264 [info]: i4 v,h,dc,ddl,ddr,vr,hd,vl,hu: 26% 22% 15%  4%  7%  6%  8%  5%  7%
x264 [info]: i8c dc,h,v,p: 23% 40% 17% 20%
x264 [info]: Weighted P-Frames: Y:1.0% UV:0.5%
x264 [info]: ref P L0: 62.3% 10.3% 14.8%  6.6%  4.5%  1.6%  0.0%
x264 [info]: ref B L0: 82.5% 12.8%  3.8%  1.0%
x264 [info]: ref B L1: 91.8%  8.2%
x264 [info]: kb/s:8015.79
Скриншоты:


Смотреть Online

http://moonwalk.cc/video/048a0d145c5c298587683a29bb13d138/iframe
Детали торрента:
Название:Тачки 2 / Cars 2 (2011) BDRip [1080p] ATV
Дата добавления:27 Янв 2015 21:45:11
Размер:7,11 GB
Раздают:9
Качают:0
Форум:Зарубежное видео HD для устройств Apple

All rights reserved © 2015-2018