TORRENTS45.XYZ

Скачать Martin Darvill And Friends - The Greatest Show On Earth (1998) [APE|Lossless]<Rock>


Martin Darvill And Friends - The Greatest Show On Earth (1998)
Жанр: Rock
Год: 1998
Страна: UK
Released: 2002/ Russia
Label: Music Of Life Pen004, Crisis
Catalog#: WWCD 083
Аудио кодек: APE
Тип рипа: image + .cue
Битрейт аудио: lossless
Продолжительность: 01:08:47
Scans: в раздаче
Спасибо: kingss

Треклист:
01. Greatest Show ('From the Beach' excerpt Including Cacophony) (1:06)
02. Modern Man (4:33)
03. Ceremony (5:55)
04. Greatest Show ('Rest of our Lives' excerpt Including Cacophony) (1:11)
05. I Must Go (5:25)
06. I Will Love You Forever (2:38)
07. I Must Go (Reprise including 'The Greatest Show' 'Mother Nature' excerpt) (1:24)
08. Don't Touch The Marble (2:43)
09. Greatest Show ('Paradise Is Waiting' excerpt) (1:12)
10. Sodium City (2:02)
11. Circus In The Sky (7:10)
12. I Am The Future (6:09)
13. Greatest Show ('Rest Your Weary Mind' excerpt) (0:40)
14. The Only Way To Fly (3:25)
15. In Search Of The Holy Grail (4:39)
16. The Greatest Show On Earth (18:35)

Дополнительная информация:


"The Greatest Show on Earth" относится к той категории проектов, где "короля играет свита". За вынесенным в титул словом friends скрываются лица, хорошо знакомые рядовому любителю прогрессива. Ветераны цеха Джон Уэттон, Эл Стюарт, Дон Эйри, Ноэл Рэддинг (Mandalaband), Мик Пойнтер (Marillion, Arena) и другие согласились поучаствовать в масштабной звуковой инсталляции, по всем формальным признакам относящейся к формату рок-оперы. Помимо мастермайнда и почетных гостей, инструментальную часть взялись поддержать коллеги Дарвилла по его родной команде Moon + культовые персонажи британского неопрогового движения: Клайв Нолан, Мартин Орфорд, Ник Барретт, Джон Митчелл, Дэйв Килминстер, Джон Джоуитт и прочие.

Credits
Acoustic Guitar – Al Stewart, Keith Bishop, Paul Robinson, Wild Willy Barrett
Backing Vocals – Amy Balcomb, Moon, Syd Twynham
Bass – Ian Salmon, John Jowitt, Noel Redding, Paul Ward
Choir – Swanbourne House School Choir, The
Drums – Brendan Loy, Kenny Jones, Kevin Woodhouse, Mark Singer, Mick Pointer
Guitar – Ian Salmon, John Mitchell, Martin Darvill
Keyboards – Clive Nolan, Don Airey, Martin Darvill, Martin Orford, Paul Ward
Lead Guitar – David Kilminster, Karl Groom, Nick Barrett
Lead Vocals – Moon
Moonatron – Moon
Rhythm Guitar – Karl Groom, Keith Bishop
Sequenced By – Karl Groom
Special Effects – Simon Harris
Vocal Orchestration – John Wetton
Vocals – Al Stewart, John Wetton
Voice – Paul Wrightson

Отчёт ЕАС:

Код:

Отчёт EAC об извлечении, выполненном 12. мая 2008, 11:19 для диска:
Martin Darvill And Friends / The Greatest Show On Earth

Дисковод: SONY    DVD RW DRU-800A   Adapter: 1  ID: 0
Режим чтения: Достоверный (C2: нет, Точный поток: да, Отключение кэша: да)
Коррекция смещения при чтении: 12
Способность читать области Lead-in и Lead-out : Нет

Выходной формат: Внутренние WAV-операции
                     44.100 Гц; 16 бит; стерео

Другие параметры:
    Заполнение пропущенных сэмплов тишиной : Да
    Удаление блоков с тишиной в начале и конце : Нет
    Встроенный Win32-интерфейс для Win NT/2000

Характеристики диапазона извлечения и сообщения об ошибках
Выбранный диапазон
     Имя файла C:\Documents and Settings\Пользователь\Мои документы\Azureus Downloads\Wetton Nolan\CDImage.wav

     Пиковый уровень 99.7 %
     Качество диапазона 100.0 %
     CRC 338C4CD3
     Копирование... OK

Ошибок не произошло

Конец отчёта

------------------------------------------------------------

Отчёт EAC об извлечении, выполненном 12. мая 2008, 11:19 для диска:
Martin Darvill And Friends / The Greatest Show On Earth

Дисковод: SONY    DVD RW DRU-800A   Adapter: 1  ID: 0
Режим чтения: Достоверный (C2: нет, Точный поток: да, Отключение кэша: да)
Коррекция смещения при чтении: 12
Способность читать области Lead-in и Lead-out : Нет

Выходной формат: Внутренние WAV-операции
                     44.100 Гц; 16 бит; стерео

Другие параметры:
    Заполнение пропущенных сэмплов тишиной : Да
    Удаление блоков с тишиной в начале и конце : Нет
    Встроенный Win32-интерфейс для Win NT/2000

Характеристики диапазона извлечения и сообщения об ошибках
Выбранный диапазон
     Имя файла C:\Documents and Settings\Пользователь\Мои документы\Azureus Downloads\Wetton Nolan\CDImage.wav

     Пиковый уровень 99.7 %
     Качество диапазона 100.0 %
     CRC 338C4CD3
     Копирование... OK

Ошибок не произошло

Конец отчёта

Отчёт auCDtect Task manager:

Код:

-----------------------

DON'T MODIFY THIS FILE

-----------------------

PERFORMER: auCDtect Task Manager, ver. 1.6.0 RC1 build 1.6.0.1
Copyright (c) 2008-2010 y-soft. All rights reserved
http://y-soft.org

ANALYZER: auCDtect: CD records authenticity detector, version 0.8.2
Copyright (c) 2004 Oleg Berngardt. All rights reserved.
Copyright (c) 2004 Alexander Djourik. All rights reserved.

FILE: CDImage.ape
  Size: 500636280 Hash: F45E7BF1739E9EAFD3A04FF055188467 Accuracy: -m0
  Conclusion: CDDA 99%
  Signature: 2D3D28598C04BCB22C7717D8D14A87286B809F99

Содержание индексной карты (.CUE):

Код:

REM GENRE "Progressive Rock"
REM DATE 1998
REM DISCID D6101F10
REM COMMENT "ExactAudioCopy v0.95b2"
PERFORMER "Martin Darvill And Friends"
TITLE "The Greatest Show On Earth"
FILE "CDImage.ape" WAVE
  TRACK 01 AUDIO
    TITLE "Greatest Show ['From the Beach' excerpt Including Cacophony]"
    PERFORMER "Martin Darvill And Friends"
    INDEX 01 00:00:00
  TRACK 02 AUDIO
    TITLE "Modern Man"
    PERFORMER "Martin Darvill And Friends"
    INDEX 01 01:06:32
  TRACK 03 AUDIO
    TITLE "Ceremony"
    PERFORMER "Martin Darvill And Friends"
    INDEX 01 05:39:07
  TRACK 04 AUDIO
    TITLE "Greatest Show ['Rest of our Lives' excerpt Including Cacophony]"
    PERFORMER "Martin Darvill And Friends"
    INDEX 01 11:34:12
  TRACK 05 AUDIO
    TITLE "I Must Go"
    PERFORMER "Martin Darvill And Friends"
    INDEX 01 12:45:32
  TRACK 06 AUDIO
    TITLE "I Will Love You Forever"
    PERFORMER "Martin Darvill And Friends"
    INDEX 01 18:10:65
  TRACK 07 AUDIO
    TITLE "I Must Go [Reprise including 'The Greatest Show' 'Mother Nature' excerpt]"
    PERFORMER "Martin Darvill And Friends"
    INDEX 01 20:48:45
  TRACK 08 AUDIO
    TITLE "Don't Touch The Marble"
    PERFORMER "Martin Darvill And Friends"
    INDEX 01 22:13:00
  TRACK 09 AUDIO
    TITLE "Greatest Show ['Paradise Is Waiting' excerpt]"
    PERFORMER "Martin Darvill And Friends"
    INDEX 01 24:56:05
  TRACK 10 AUDIO
    TITLE "Sodium City"
    PERFORMER "Martin Darvill And Friends"
    INDEX 01 26:07:70
  TRACK 11 AUDIO
    TITLE "Circus In The Sky"
    PERFORMER "Martin Darvill And Friends"
    INDEX 01 28:10:00
  TRACK 12 AUDIO
    TITLE "I Am The Future"
    PERFORMER "Martin Darvill And Friends"
    INDEX 01 35:19:62
  TRACK 13 AUDIO
    TITLE "Greatest Show ['Rest Your Weary Mind' excerpt]"
    PERFORMER "Martin Darvill And Friends"
    INDEX 01 41:28:42
  TRACK 14 AUDIO
    TITLE "The Only Way To Fly"
    PERFORMER "Martin Darvill And Friends"
    INDEX 01 42:08:52
  TRACK 15 AUDIO
    TITLE "In Search Of The Holy Grail [Including Cacophony]"
    PERFORMER "Martin Darvill And Friends"
    INDEX 01 45:33:27
  TRACK 16 AUDIO
    TITLE "The Greatest Show On Earth [Parts 1 to 6]"
    PERFORMER "Martin Darvill And Friends"
    INDEX 01 50:12:50
YouTube


Детали торрента:
Название:Martin Darvill And Friends - The Greatest Show On Earth (1998) [APE|Lossless]<Rock>
Дата добавления:11 Янв 2015 13:17:54
Размер:484 MB
Раздают:
Качают:0
Форум:Rock (Lossless)

All rights reserved © 2015-2018