TORRENTS45.XYZ

Скачать Wolfgang Amadeus Mozart - Piano concertos Stuttgarter Kammerorchester Dennis Russell Davies Keith Jarrett (1996-1998) 2CD [FLAC|Lossless]<Classical>


Wolfgang Amadeus Mozart
Piano Concertos KV.271, KV.453, KV.466 Adagio and Fugue KV.546
Keith Jarrett, Stuttgarter Kammerorchester & Dennis Russell Davies (1996-1998)

Год: 1996-1998
Жанр: Classical
Продолжительность: 01:42:38

Кодек: FLAC
Битрейт: Lossless
Тип рипа: image +.cue
Издатель (лейбл): ECM Records
Производитель диска: Germany
Номер по каталогу: 462651-2
ASIN: B00000K2WP
Источник: Собственный рип
Наличие сканов в содержимом раздачи: да

1998 - CD1 - Concerto for Piano and Orchestra KV.466, KV.453

Треклист:
01. Concerto for Piano and Orchestra KV.466 I.Allegro (14:54)
02. Concerto for Piano and Orchestra KV.466 II.Romance (09:14)
03. Concerto for Piano and Orchestra KV.466 III.Allegro assai (08:15)
04. Concerto for Piano and Orchestra KV.453 I.Allegro (12:38)
05. Concerto for Piano and Orchestra KV.453 II.Andante (10:04)
06. Concerto for Piano and Orchestra KV.453 III.Allegretto-Finale Presto (07:45)
Прoдолжительность: 01:02:53

Отчёт ЕАС:

Код:

Exact Audio Copy V1.0 beta 3 from 29. August 2011

EAC extraction logfile from 8. January 2015, 1:27

Keith Jarrett / Mozart, Piano Concertos K.271, 453, 466, Adagio and Fugue K.546

Used drive  : TSSTcorpCDDVDW SE-208AB   Adapter: 1  ID: 0

Read mode               : Secure
Utilize accurate stream : Yes
Defeat audio cache      : Yes
Make use of C2 pointers : No

Read offset correction                      : 6
Overread into Lead-In and Lead-Out          : No
Fill up missing offset samples with silence : Yes
Delete leading and trailing silent blocks   : No
Null samples used in CRC calculations       : Yes
Used interface                              : Native Win32 interface for Win NT & 2000

Used output format              : User Defined Encoder
Selected bitrate                : 128 kBit/s
Quality                         : High
Add ID3 tag                     : No
Command line compressor         : C:\Program Files (x86)\Exact Audio Copy\Flac\flac.exe
Additional command line options : -V -8 -T "Date=%year%" -T "Genre=%genre%" %source%

TOC of the extracted CD

     Track |   Start  |  Length  | Start sector | End sector
    ---------------------------------------------------------
        1  |  0:00.00 | 14:54.60 |         0    |    67109
        2  | 14:54.60 |  9:14.47 |     67110    |   108706
        3  | 24:09.32 |  8:15.55 |    108707    |   145886
        4  | 32:25.12 | 12:38.40 |    145887    |   202776
        5  | 45:03.52 | 10:04.50 |    202777    |   248126
        6  | 55:08.27 |  7:45.23 |    248127    |   283024

Range status and errors

Selected range

     Filename D:\Music\Keith Jarrett - Mozart, Piano Concertos\Keith Jarrett - Mozart, Piano Concertos.wav

     Peak level 100.0 %
     Extraction speed 4.9 X
     Range quality 99.9 %
     Test CRC 68EEFFDC
     Copy CRC 68EEFFDC
     Copy OK

No errors occurred

AccurateRip summary

Track  1  accurately ripped (confidence 4)  [F54C4013]  (AR v2)
Track  2  accurately ripped (confidence 4)  [C199A281]  (AR v2)
Track  3  accurately ripped (confidence 4)  [57540701]  (AR v2)
Track  4  accurately ripped (confidence 4)  [CAB687F1]  (AR v2)
Track  5  accurately ripped (confidence 4)  [EA3B09D3]  (AR v2)
Track  6  cannot be verified as accurate (confidence 11)  [05CD1855], AccurateRip returned [53EB87D2]  (AR v2)

 5 трек(и) скопированы точно
 1 трек(и) не удалось проверить на точность

Some tracks could not be verified as accurate

End of status report

==== Log checksum A386860D43BA8EB1A3597AEFB44B03D9E02B1A9A01FCBDFFFD237FD03167D176 ====

Содержание индексной карты (*.cue):

Код:

REM EDIT CUESheet Editor for CA RipTools 08.01.2015 19:34:30
REM DATE 1998
REM GENRE Classic
REM DISCID 4E0EBD06
REM DISCNUMBER 1
REM TOTALDISCS 2
REM PUBLISHER CM Records
REM PUBNUMBER 462651-2
REM COMMENT ExactAudioCopy v1.0b3
    PERFORMER "Stuttgart Chamber Orchestra"
    TITLE "Mozart, Piano Concertos KV.453, 466"
FILE "CD1-Keith Jarrett-Mozart, Piano Concertos.flac" WAVE
  TRACK 01 AUDIO
    TITLE "Concerto fo Piano and Orchestra KV.466 I.Allegro"
    PERFORMER "Keith Jarrett"
     INDEX 01 00:00:00
  TRACK 02 AUDIO
    TITLE "Concerto fo Piano and Orchestra KV.466 II.Romance"
    PERFORMER "Keith Jarrett"
     INDEX 01 14:54:60
  TRACK 03 AUDIO
    TITLE "Concerto fo Piano and Orchestra KV.466 III.Allegro assai"
    PERFORMER "Keith Jarrett"
     INDEX 01 24:09:32
  TRACK 04 AUDIO
    TITLE "Concerto fo Piano and Orchestra KV.453 I.Allegro"
    PERFORMER "Keith Jarrett"
     INDEX 01 32:25:12
  TRACK 05 AUDIO
    TITLE "Concerto fo Piano and Orchestra KV.453 II.Andante"
    PERFORMER "Keith Jarrett"
     INDEX 01 45:03:52
  TRACK 06 AUDIO
    TITLE "Concerto fo Piano and Orchestra KV.453 III.Allegretto-Finale Presto"
    PERFORMER "Keith Jarrett"
     INDEX 01 55:08:27

Отчёт auCDtect Task manager:

Код:

-----------------------

DON'T MODIFY THIS FILE

-----------------------

PERFORMER: auCDtect Task Manager, ver. 1.6.0 RC1 build 1.6.0.1
Copyright (c) 2008-2010 y-soft. All rights reserved
http://y-soft.org

ANALYZER: auCDtect: CD records authenticity detector, version 0.8.2
Copyright (c) 2004 Oleg Berngardt. All rights reserved.
Copyright (c) 2004 Alexander Djourik. All rights reserved.

FILE: Keith Jarrett - Mozart, Piano Concertos.flac
  Size: 250921627 Hash: C8103312D9D5C96146311F3FD990EBC4 Accuracy: -m0
  Conclusion: CDDA 58%
  Signature: 9B42035E22A5CA632086106ECA9E0D004DD046F5

Спектрограмма:

1996 - CD2 - Concerto for Piano and Orchestra KV.271, KV.546

Треклист:
01. Concerto for Piano No.9 in E-flat major, KV.271 'Jeunehomme' I.Allegro (10:56)
02. Concerto for Piano No.9 in E-flat major, KV.271 'Jeunehomme' II.Andantino (10:31)
03. Concerto for Piano No.9 in E-flat major, KV.271 'Jeunehomme' III.Rondeau.... (10:54)
04. Adagio and Fugue for String Quartet in C minor, KV.546 (07:22)
Прoдолжительность: 00:39:44

Отчёт ЕАС:

Код:

Exact Audio Copy V1.0 beta 3 from 29. August 2011

EAC extraction logfile from 8. January 2015, 17:31

Wolfgang Amadeus Mozart / Piano Concertos KV 271, 453, 456 / Adagio and Fugue KV 546 (Stuttgarter Kammerorchester feat. conductor: Dennis Russell Davies, piano: Keith Jarrett)

Used drive  : PLEXTOR DVDR   PX-880SA   Adapter: 0  ID: 2

Read mode               : Secure
Utilize accurate stream : Yes
Defeat audio cache      : Yes
Make use of C2 pointers : No

Read offset correction                      : 6
Overread into Lead-In and Lead-Out          : No
Fill up missing offset samples with silence : Yes
Delete leading and trailing silent blocks   : No
Null samples used in CRC calculations       : Yes
Used interface                              : Native Win32 interface for Win NT & 2000

Used output format              : User Defined Encoder
Selected bitrate                : 128 kBit/s
Quality                         : High
Add ID3 tag                     : No
Command line compressor         : C:\Program Files\Exact Audio Copy\Flac\flac.exe
Additional command line options : -V -8 -T "Date=%year%" -T "Genre=%genre%" %source%

TOC of the extracted CD

     Track |   Start  |  Length  | Start sector | End sector
    ---------------------------------------------------------
        1  |  0:00.00 | 10:56.55 |         0    |    49254
        2  | 10:56.55 | 10:31.30 |     49255    |    96609
        3  | 21:28.10 | 10:54.02 |     96610    |   145661
        4  | 32:22.12 |  7:22.63 |    145662    |   178874

Range status and errors

Selected range

     Filename D:\Rip\Keith Jarrett - Mozart, Piano Concertos\CD2\Piano Concertos KV 271, 453, 456 , Adagio and Fugue KV 546.wav

     Peak level 98.1 %
     Extraction speed 6.9 X
     Range quality 100.0 %
     Test CRC C263FF7C
     Copy CRC C263FF7C
     Copy OK

No errors occurred

AccurateRip summary

Track  1  accurately ripped (confidence 6)  [BFEB81A8]  (AR v2)
Track  2  accurately ripped (confidence 6)  [9AA15D04]  (AR v2)
Track  3  accurately ripped (confidence 6)  [E1201930]  (AR v2)
Track  4  accurately ripped (confidence 6)  [6E926CE3]  (AR v2)

All tracks accurately ripped

End of status report

==== Log checksum AC5DD47C4FFCCA8921640DCF9E1D952E26ACE2ABE55E7E914E89C47284741AEB ====

Содержание индексной карты (*.cue):

Код:

REM EDIT CUESheet Editor for CA RipTools 08.01.2015 19:29:18
REM DATE 1996
REM GENRE Classic
REM DISCID 33095104
REM DISCNUMBER 2
REM TOTALDISCS 2
REM PUBLISHER ECM Records
REM PUBNUMBER 462651-2
REM COMMENT ExactAudioCopy v1.0b3
    PERFORMER "Stuttgart Chamber Orchestra"
    TITLE "Piano Concertos KV 271&Adagio and Fugue KV 546 (Stuttgart Chamber Orchestra)"
FILE "CD2-Piano Concertos KV271, Adagio and Fugue KV546.flac" WAVE
  TRACK 01 AUDIO
    PERFORMER "Keith Jarrett"
    TITLE "Concerto for Piano No.9 in E-flat major, KV.271 'Jeunehomme' I.Allegro"
     INDEX 01 00:00:00
  TRACK 02 AUDIO
    PERFORMER "Keith Jarrett"
    TITLE "Concerto for Piano No.9 in E-flat major, KV.271 'Jeunehomme' II.Andantino"
     INDEX 01 10:56:55
  TRACK 03 AUDIO
    PERFORMER "Keith Jarrett"
    TITLE "Concerto for Piano No.9 in E-flat major, KV.271 'Jeunehomme' III.Rondeau...."
     INDEX 01 21:28:10
  TRACK 04 AUDIO
    PERFORMER "Keith Jarrett"
    TITLE "Adagio and Fugue for String Quartet in C minor, KV.546"
     INDEX 01 32:22:12

Отчёт auCDtect Task manager:

Код:

-----------------------

DON'T MODIFY THIS FILE

-----------------------

PERFORMER: auCDtect Task Manager, ver. 1.6.0 RC1 build 1.6.0.1
Copyright (c) 2008-2010 y-soft. All rights reserved
http://y-soft.org

ANALYZER: auCDtect: CD records authenticity detector, version 0.8.2
Copyright (c) 2004 Oleg Berngardt. All rights reserved.
Copyright (c) 2004 Alexander Djourik. All rights reserved.

FILE: CD2-Piano Concertos KV271, Adagio and Fugue KV546.flac
  Size: 159483080 Hash: EDE3B849799B9254318C566CAC3ACFD7 Accuracy: -m0
  Conclusion: CDDA 100%
  Signature: 968FA60F806227BC1C3D4E76024DC6287FCB9D2C

Спектрограмма:

Дополнительная информация:

Деннис Рассел Дэвис (англ. Dennis Russell Davies; род. 16 апреля 1944, Толидо, штат Огайо, США) — американский дирижёр и пианист. Один из основателей Оркестра американских композиторов, единственного в мире оркестра, специализирующегося исключительно на музыке США.

Dennis Russell Davies



Окончил Джульярдскую школу. В 1972—1980 гг. возглавлял Камерный оркестр Сент-Пола, с которым добился значительных успехов — в том числе получил в 1980 г. премию «Грэмми» за лучшую запись камерной музыки (сюита Аарона Копленда «Весна в Аппалачах»). Одновременно основал (1977, вместе с Фрэнсисом Торном) Оркестр американских композиторов, у руля которого находился до 2002 года. В США возглавлял также Бруклинский филармонический оркестр (1990—1996), поддерживая программную политику Джозефа Горовица, нацеленную на приоритет новейшей музыки.

С 1980 г. в наибольшей степени работал в Европе. В 1980—1987 гг. генеральмузикдиректор Штутгарта, во главе Штутгартской оперы осуществил, в частности, премьеры двух опер Филипа Гласса, с которым Дэвиса связывает особенно длительное и прочное творческое содружество (первые исполнения большинства симфоний и концертов Гласса также состоялись под управлением Дэвиса, Пятая симфония Гласса ему посвящена). В 1987—1995 гг. возглавлял оркестр Бетховенхалле в Бонне, в 1996—2002 гг. — Симфонический оркестр Венского радио. С 2002 г. Дэвис руководит Брукнеровским оркестром Линца, а с 2009 г. ещё и Базельским симфоническим оркестром.

В качестве пианиста Дэвис выступает существенно реже, в последние годы часто в дуэте с пианисткой Маки Намекава.

Репертуар и записи:
Дэвис известен, прежде всего, как интерпретатор музыки второй половины XX века. Помимо Филипа Гласса, в круг его постоянного внимания входят такие авторы, как Ханс Вернер Хенце, Уильям Болком, Лу Харрисон, Алан Хованесс, Джон Кейдж, Вирджил Томсон, Альфред Шнитке, Валентин Силиверстов, Гия Канчели, Арво Пярт.

В то же время среди постановок Дэвиса — «Летучий голландец» Рихарда Вагнера на Байройтском фестивале и «Расцевет и падения города Махагони» Курта Вайля на Зальцбургском фестивале. Совместно с оркестром Венского радио записал симфонию Ханса Ротта.

В 2010 году совместно со Штутгардским камерным оркестром записал на фирме Sony полный комплект симфоний Йозефа Гайдна (106 симфоний и Концерная симфония, всего 37 дисков) и стал, таким образом, четвёртым и последним дирижёром, осуществившим этот масштабный проект (трое других — Эрнст Марцендорфер, Антал Дорати и Адам Фишер; аналогичный проект Роя Гудмана не был завёршён). Критик Дэвид Тришер пишет об этом комплекте:

«Парижские» и многие более поздние симфонии (особенно № 88-90), безусловно удались; их записи выдерживают конкуренцию со многими достойными работами. Но интерпретациям Д. Р. Дэвиса и его оркестра часто не хватает юмора, что особенно сильно ощущается в некоторых местах «Лондонских симфоний» (…) Конечно, ни один полный комплект гайдновских симфоний не удовлетворит всех слушателей полностью и в равной мере (…) Что касается Д. Р. Дэвиса, то его ахиллесова пята — осторожность.

Кит Джа́рретт (англ. Keith Jarrett; род. 8 мая 1945, Аллентаун, Пенсильвания, США) — американский джазовый музыкант-исполнитель и композитор.

Keith Jarrett



Биография:
Джарретт был старшим из пяти братьев в семье (кстати, все проявили наклонности к музыке). Джарретт впервые сел за фортепиано в возрасте трёх лет, и начал обучаться игре на нём. Он быстро в этом преуспел и в семилетнем возрасте дал первый сольный концерт, где играл произведения Баха, Моцарта, Бетховена, а также два собственных произведения. А в 1962 году, в возрасте 17-ти лет, он выступил с сольным концертом, состоящим из собственных произведений.

Начал карьеру в ансамбле Арта Блэйки Jazz Messengers в середине 1960-х годов, впоследствии был клавишником в коллективах Чарльза Ллойда и Майлза Дэвиса. С начала 1970-х годов выступал со своим ансамблем, а также сольно и как приглашённый музыкант.

Джарретт известен своими сольными импровизациями (например, The Köln Concert), вовлекающими материал самых различных музыкальных жанров. Кроме джаза, он исполняет академический репертуар. Ему принадлежит запись Гольдберг-вариаций Баха и прелюдий и фуг Шостаковича.
Описание:
В 2003 году Кит Джа́рретт стал единоличным лауреатом Polar Music Prize. Впервые за всю историю существования премии она не была разделена между несколькими соискателями.

YouTube




Поглощение/вытеснение
Только с согласия релизера

gvm55

Детали торрента:
Название:Wolfgang Amadeus Mozart - Piano concertos Stuttgarter Kammerorchester Dennis Russell Davies Keith Jarrett (1996-1998) 2CD [FLAC|Lossless]<Classical>
Дата добавления:08 Янв 2015 20:14:38
Размер:416 MB
Раздают:4
Качают:0
Форум:Оркестровая (Lossless)

All rights reserved © 2015-2018