TORRENTS45.XYZ

Скачать Strauss Family - Polkas & Waltzes (Lorin Maazel & Wiener Philharmoniker Orchestra) (2CDs) (1996) [FLAC|Lossless]<Classical, Live Performances, Romantic Period, Orchestral, Symphonic, Post-Romantic, Character Piece, Dance, Overture, Waltz,


Strauss Family - Polkas & Waltzes (Lorin Maazel & Wiener Philharmoniker Orchestra) (2CDs) (1996)
Год: Sep 16, 1996
Жанр: Classical, Live Performances, Romantic Period, Orchestral, Symphonic, Post-Romantic, Character Piece, Dance, Overture, Waltz, March, Mazurka, Polka
Лейбл: Deutsche Grammophon GmbH
Номер по каталогу: 453052-2
Продолжительность: 02:28:39
Кодек: FLAC
Битрейт: Lossless
Тип рипа: image +.cue

Composer: Johann Strauss (1825-1899), Josef Strauss (1827-1870), Johann Strauss (father) (1804-1849)
Conductor: Lorin Maazel
Ensemble: Wiener Philharmoniker Orchestra

CD1:

Продолжительность: 01:12:45

Треклист:
01. Johann Strauss - 'Die Fledermaus'-Ouvertüre (08:38)
02. Johann Strauss - Tritsch-Tratsch-Polka op. 214 (02:39)
03. Josef Strauss - Sphärenklänge op. 235 (09:12)
04. Josef Strauss - Ohne Sorgen op. 271 (01:53)
05. Johann Strauss - G'schichten aus dem Wienerwald op. 325 (12:12)
06. Josef Strauss - Frauenherz op. 166 (04:07)
07. Johann Strauss - Accelerationen op. 234 (09:03)
08. Johann Strauss - Perpetuum mobile op. 257 (02:58)
09. Josef Strauss - Aquarellen op. 258 (08:21)
10. Johann Strauss - Unter Donner und Blitz op. 324 (03:01)
11. Johann Strauss - Kaiser-Walzer op. 437 (10:40)

cd1 ЕАС - log:

Код:

Exact Audio Copy V1.0 beta 3 from 29. August 2011

EAC extraction logfile from 23. December 2014, 16:42

Lorin Maazel / Strauss family - Waltzes and Polkas - Lorin Maazel (Disc 1)

Used drive  : TSSTcorpCDDVDW SH-222BB   Adapter: 2  ID: 1

Read mode               : Secure
Utilize accurate stream : Yes
Defeat audio cache      : Yes
Make use of C2 pointers : No

Read offset correction                      : 6
Overread into Lead-In and Lead-Out          : No
Fill up missing offset samples with silence : Yes
Delete leading and trailing silent blocks   : No
Null samples used in CRC calculations       : Yes
Used interface                              : Native Win32 interface for Win NT & 2000

Used output format              : User Defined Encoder
Selected bitrate                : 896 kBit/s
Quality                         : High
Add ID3 tag                     : No
Command line compressor         : C:\Program Files\Exact Audio Copy\FLAC\FLAC.EXE
Additional command line options : -8 -V -T "TITLE=%title%" -T "ARTIST=%artist%" -T "ALBUMARTIST=%albumartist%" -T "ALBUM=%albumtitle%" -T "DATE=%year%" -T "TRACKNUMBER=%tracknr%" -T "TRACKTOTAL=%numtracks%" -T "GENRE=%genre%" -T "COMMENT=%comment%" -T "PERFORMER=%albuminterpret%" -T "COMPOSER=%composer%" %source% -o %dest%

TOC of the extracted CD

     Track |   Start  |  Length  | Start sector | End sector
    ---------------------------------------------------------
        1  |  0:00.00 |  8:38.00 |         0    |    38849
        2  |  8:38.00 |  2:39.00 |     38850    |    50774
        3  | 11:17.00 |  9:11.40 |     50775    |    92139
        4  | 20:28.40 |  1:53.35 |     92140    |   100649
        5  | 22:22.00 | 12:12.00 |    100650    |   155549
        6  | 34:34.00 |  4:07.00 |    155550    |   174074
        7  | 38:41.00 |  9:03.18 |    174075    |   214817
        8  | 47:44.18 |  2:58.05 |    214818    |   228172
        9  | 50:42.23 |  8:21.35 |    228173    |   265782
       10  | 59:03.58 |  3:01.30 |    265783    |   279387
       11  | 62:05.13 | 10:39.62 |    279388    |   327374

Range status and errors

Selected range

     Filename G:\Ripped general\[7593] Strauss family – Waltzes and Polkas – Lorin Maazel\cd1\Strauss family - Waltzes and Polkas - Lorin Maazel (Disc 1).wav

     Peak level 99.9 %
     Extraction speed 7.3 X
     Range quality 100.0 %
     Test CRC 6B661583
     Copy CRC 6B661583
     Copy OK

No errors occurred

AccurateRip summary

Track  1  accurately ripped (confidence 2)  [4438864A]  (AR v2)
Track  2  accurately ripped (confidence 2)  [C841A637]  (AR v2)
Track  3  accurately ripped (confidence 2)  [2F9A1241]  (AR v2)
Track  4  accurately ripped (confidence 2)  [827AC455]  (AR v2)
Track  5  accurately ripped (confidence 2)  [3B8C8D58]  (AR v2)
Track  6  accurately ripped (confidence 2)  [39E1AB25]  (AR v2)
Track  7  accurately ripped (confidence 2)  [3BCF58FB]  (AR v2)
Track  8  accurately ripped (confidence 2)  [43093A14]  (AR v2)
Track  9  accurately ripped (confidence 2)  [699A84FD]  (AR v2)
Track 10  accurately ripped (confidence 2)  [2FC9B562]  (AR v2)
Track 11  accurately ripped (confidence 2)  [DF64B855]  (AR v2)

All tracks accurately ripped

End of status report

==== Log checksum F2B92DDE322136216B28258542BE74AB940BD5FE09D45A66ECCEE73700FA1665 ====

cd1 auCDtect - log:

Код:

-----------------------

DON'T MODIFY THIS FILE

-----------------------

PERFORMER: auCDtect Task Manager, ver. 1.5.1RC6 build 1.5.1.7
Copyright (c) 2008-2010 y-soft. All rights reserved
http://y-soft.org

ANALYZER: auCDtect: CD records authenticity detector, version 0.8.2
Copyright (c) 2004 Oleg Berngardt. All rights reserved.
Copyright (c) 2004 Alexander Djourik. All rights reserved.

FILE: Strauss family - Waltzes and Polkas - Lorin Maazel (Disc 1).flac
  Size: 350856277 Hash: D2591E1EB3DF02501F81398B98DB1B7F Accuracy: -m0
  Conclusion: CDDA 100%
  Signature: BB17BA9936430AE60741C6982ED82D802F5DE565

cd1 cue sheet (*.cue):

Код:
REM GENRE Classical
REM DATE 1983
REM DISCID 8F110D0B
REM COMMENT "ExactAudioCopy v1.0b3"
CATALOG 0028945305325
PERFORMER "Lorin Maazel"
TITLE "Strauss family - Waltzes and Polkas - Lorin Maazel (Disc 1)"
FILE "Strauss family - Waltzes and Polkas - Lorin Maazel (Disc 1).flac" WAVE
  TRACK 01 AUDIO
    TITLE "Johann Strauss - 'Die Fledermaus'-Ouvertьre"
    PERFORMER "Lorin Maazel"
    ISRC DEF058000770
    INDEX 01 00:00:00
  TRACK 02 AUDIO
    TITLE "Johann Strauss - Tritsch-Tratsch-Polka op. 214"
    PERFORMER "Lorin Maazel"
    ISRC DEF058100390
    INDEX 01 08:38:00
  TRACK 03 AUDIO
    TITLE "Josef Strauss - Sphдrenklдnge op. 235"
    PERFORMER "Lorin Maazel"
    ISRC DEF057902040
    INDEX 01 11:17:00
  TRACK 04 AUDIO
    TITLE "Josef Strauss - Ohne Sorgen op. 271"
    PERFORMER "Lorin Maazel"
    ISRC DEF058100350
    INDEX 01 20:28:40
  TRACK 05 AUDIO
    TITLE "Johann Strauss - G'schichten aus dem Wienerwald op. 325"
    PERFORMER "Lorin Maazel"
    ISRC DEF058203640
    INDEX 01 22:22:00
  TRACK 06 AUDIO
    TITLE "Josef Strauss - Frauenherz op. 166"
    PERFORMER "Lorin Maazel"
    ISRC DEF058100400
    INDEX 01 34:34:00
  TRACK 07 AUDIO
    TITLE "Johann Strauss - Accelerationen op. 234"
    PERFORMER "Lorin Maazel"
    ISRC DEF058100430
    INDEX 01 38:41:00
  TRACK 08 AUDIO
    TITLE "Johann Strauss - Perpetuum mobile op. 257"
    PERFORMER "Lorin Maazel"
    ISRC DEF058000790
    INDEX 01 47:44:18
  TRACK 09 AUDIO
    TITLE "Josef Strauss - Aquarellen op. 258"
    PERFORMER "Lorin Maazel"
    ISRC DEF057902020
    INDEX 01 50:42:23
  TRACK 10 AUDIO
    TITLE "Johann Strauss - Unter Donner und Blitz op. 324"
    PERFORMER "Lorin Maazel"
    ISRC DEF058104220
    INDEX 01 59:03:58
  TRACK 11 AUDIO
    TITLE "Johann Strauss - Kaiser-Walzer op. 437"
    PERFORMER "Lorin Maazel"
    ISRC DEF058200460
    INDEX 01 62:05:13

CD2:

Продолжительность: 01:15:54

Треклист:
01. Johann Strauss - 'Waldmeister'-Ouverture (09:22)
02. Jahann & Josef Strauss - Pizzicato-Polka (02:42)
03. Johann Strauss - Rosen auf den Süden op. 388 (08:27)
04. Josef Strauss - Die Libelle op. 204 (04:50)
05. Josef Strauss - Transactionen op. 183 (10:05)
06. Johann Strauss - Vergnügungszug op. 281 (02:44)
07. Johann Strauss - Morgenblätter op. 279 (09:08)
08. Josef Strauss - Die tanzende Muse op. 266 (04:13)
09. Josef Strauss - Delirien op. 212 (08:33)
10. Johann Strauss - Eljen a Magyarl op. 332 (02:47)
11. Johann Strauss - An der schönen, blauen Donau op. 314 (09:46)
12. Johann Strauss (father)- Radetzky-Marsch (03:17)

cd2 EAC - log:

Код:
Exact Audio Copy V1.0 beta 3 from 29. August 2011

EAC extraction logfile from 23. December 2014, 17:10

Lorin Maazel / Strauss family - Waltzes and Polkas - Lorin Maazel (Disc 2)

Used drive  : TSSTcorpCDDVDW SH-222BB   Adapter: 2  ID: 1

Read mode               : Secure
Utilize accurate stream : Yes
Defeat audio cache      : Yes
Make use of C2 pointers : No

Read offset correction                      : 6
Overread into Lead-In and Lead-Out          : No
Fill up missing offset samples with silence : Yes
Delete leading and trailing silent blocks   : No
Null samples used in CRC calculations       : Yes
Used interface                              : Native Win32 interface for Win NT & 2000

Used output format              : User Defined Encoder
Selected bitrate                : 896 kBit/s
Quality                         : High
Add ID3 tag                     : No
Command line compressor         : C:\Program Files\Exact Audio Copy\FLAC\FLAC.EXE
Additional command line options : -8 -V -T "TITLE=%title%" -T "ARTIST=%artist%" -T "ALBUMARTIST=%albumartist%" -T "ALBUM=%albumtitle%" -T "DATE=%year%" -T "TRACKNUMBER=%tracknr%" -T "TRACKTOTAL=%numtracks%" -T "GENRE=%genre%" -T "COMMENT=%comment%" -T "PERFORMER=%albuminterpret%" -T "COMPOSER=%composer%" %source% -o %dest%

TOC of the extracted CD

     Track |   Start  |  Length  | Start sector | End sector
    ---------------------------------------------------------
        1  |  0:00.00 |  9:21.50 |         0    |    42124
        2  |  9:21.50 |  2:42.25 |     42125    |    54299
        3  | 12:04.00 |  8:27.00 |     54300    |    92324
        4  | 20:31.00 |  4:50.00 |     92325    |   114074
        5  | 25:21.00 | 10:05.00 |    114075    |   159449
        6  | 35:26.00 |  2:44.23 |    159450    |   171772
        7  | 38:10.23 |  9:07.52 |    171773    |   212849
        8  | 47:18.00 |  4:13.00 |    212850    |   231824
        9  | 51:31.00 |  8:33.00 |    231825    |   270299
       10  | 60:04.00 |  2:47.00 |    270300    |   282824
       11  | 62:51.00 |  9:46.13 |    282825    |   326787
       12  | 72:37.13 |  3:16.62 |    326788    |   341549

Range status and errors

Selected range

     Filename G:\Ripped general\[7593] Strauss family – Waltzes and Polkas – Lorin Maazel\cd2\Strauss family - Waltzes and Polkas - Lorin Maazel (Disc 2).wav

     Peak level 99.9 %
     Extraction speed 6.8 X
     Range quality 99.9 %
     Test CRC C73E5FD6
     Copy CRC C73E5FD6
     Copy OK

No errors occurred

AccurateRip summary

Track  1  accurately ripped (confidence 2)  [85C0F883]  (AR v2)
Track  2  accurately ripped (confidence 2)  [F7BD03D8]  (AR v2)
Track  3  accurately ripped (confidence 2)  [8A015E79]  (AR v2)
Track  4  accurately ripped (confidence 2)  [8D4F670F]  (AR v2)
Track  5  accurately ripped (confidence 2)  [A894B94B]  (AR v2)
Track  6  accurately ripped (confidence 2)  [6718AF08]  (AR v2)
Track  7  accurately ripped (confidence 2)  [55D4A194]  (AR v2)
Track  8  accurately ripped (confidence 2)  [7966E238]  (AR v2)
Track  9  cannot be verified as accurate (confidence 2)  [C00803C6], AccurateRip returned [D4880D30]  (AR v2)
Track 10  accurately ripped (confidence 2)  [CA5EB760]  (AR v2)
Track 11  accurately ripped (confidence 2)  [0E9E2420]  (AR v2)
Track 12  accurately ripped (confidence 2)  [5E5F2DFE]  (AR v2)

11 track(s) accurately ripped
 1 track(s) could not be verified as accurate

Some tracks could not be verified as accurate

End of status report

==== Log checksum CFCE4B2ABF52A22F38D3C58466526BA94819525E0BE0522154A2E8B163AF3DCB ====

cd2 auCDtect - log:

Код:
-----------------------

DON'T MODIFY THIS FILE

-----------------------

PERFORMER: auCDtect Task Manager, ver. 1.5.1RC6 build 1.5.1.7
Copyright (c) 2008-2010 y-soft. All rights reserved
http://y-soft.org

ANALYZER: auCDtect: CD records authenticity detector, version 0.8.2
Copyright (c) 2004 Oleg Berngardt. All rights reserved.
Copyright (c) 2004 Alexander Djourik. All rights reserved.

FILE: Strauss family - Waltzes and Polkas - Lorin Maazel (Disc 2).flac
  Size: 364963613 Hash: E3609F238FD3B962E280D5291C228332 Accuracy: -m0
  Conclusion: CDDA 94%
  Signature: 555421BEF2465FF0A78D30DBC4E15C9488BCACE4

cd2 cue sheet (*.cue)

Код:
REM GENRE Classical
REM DATE 1983
REM DISCID A411CA0C
REM COMMENT "ExactAudioCopy v1.0b3"
CATALOG 0028945305424
PERFORMER "Lorin Maazel"
TITLE "Strauss family - Waltzes and Polkas - Lorin Maazel (Disc 2)"
FILE "Strauss family - Waltzes and Polkas - Lorin Maazel (Disc 2).flac" WAVE
  TRACK 01 AUDIO
    TITLE "Johann Strauss - 'Waldmeister'-Ouvertьre"
    PERFORMER "Lorin Maazel"
    ISRC DEF057902050
    INDEX 01 00:00:00
  TRACK 02 AUDIO
    TITLE "Jahann & Josef Strauss - Pizzicato-Polka"
    PERFORMER "Lorin Maazel"
    ISRC DEF058100340
    INDEX 01 09:21:50
  TRACK 03 AUDIO
    TITLE "Johann Strauss - Rosen auf den Sьden op. 388"
    PERFORMER "Lorin Maazel"
    ISRC DEF058100330
    INDEX 01 12:04:00
  TRACK 04 AUDIO
    TITLE "Josef Strauss - Die Libelle op. 204"
    PERFORMER "Lorin Maazel"
    ISRC DEF058203620
    INDEX 01 20:31:00
  TRACK 05 AUDIO
    TITLE "Josef Strauss - Transactionen op. 183"
    PERFORMER "Lorin Maazel"
    ISRC DEF058100360
    INDEX 01 25:21:00
  TRACK 06 AUDIO
    TITLE "Johann Strauss - Vergnьgungszug op. 281"
    PERFORMER "Lorin Maazel"
    ISRC DEF058200550
    INDEX 01 35:26:00
  TRACK 07 AUDIO
    TITLE "Johann Strauss - Morgenblдtter op. 279"
    PERFORMER "Lorin Maazel"
    ISRC DEF058200550
    INDEX 01 38:10:23
  TRACK 08 AUDIO
    TITLE "Josef Strauss - Die tanzende Muse op. 266"
    PERFORMER "Lorin Maazel"
    ISRC DEF058104230
    INDEX 01 47:18:00
  TRACK 09 AUDIO
    TITLE "Josef Strauss - Delirien op. 212"
    PERFORMER "Lorin Maazel"
    ISRC DEF058200500
    INDEX 01 51:31:00
  TRACK 10 AUDIO
    TITLE "Johann Strauss - Eljen a Magyarl op. 332"
    PERFORMER "Lorin Maazel"
    ISRC DEF058203630
    INDEX 01 60:04:00
  TRACK 11 AUDIO
    TITLE "Johann Strauss - An der schцnen, blauen Donau op. 314"
    PERFORMER "Lorin Maazel"
    ISRC DEF058000880
    INDEX 01 62:51:00
  TRACK 12 AUDIO
    TITLE "Johann Strauss (father)- Radetzky-Marsch"
    PERFORMER "Lorin Maazel"
    ISRC DEF058200560
    INDEX 01 72:37:13


Детали торрента:
Название:Strauss Family - Polkas & Waltzes (Lorin Maazel & Wiener Philharmoniker Orchestra) (2CDs) (1996) [FLAC|Lossless]<Classical, Live Performances, Romantic Period, Orchestral, Symphonic, Post-Romantic, Character Piece, Dance, Overture, Waltz,
Дата добавления:03 Янв 2015 01:27:51
Размер:692 MB
Раздают:2
Качают:0
Форум:Оркестровая (Lossless)

All rights reserved © 2015-2018