TORRENTS45.XYZ

Скачать Sleep Dealer - 3 альбома, 2 сингла (2009-2013) [MP3|192-320 кб/с]<Post rock, Ambient>


Sleep Dealer - 3 альбома, 2 сингла (2009-2013)
Год: 2009-2013
Жанр: Post rock, Ambient
Продолжительность: 01:52:01

Кодек: MP3
Битрейт: 192-320
Тип битрейта: CBR

2009 - The Way Home (EP)

Битрейт: 192-320 кб/с
Продолжительноcть: 00:24:53
Треклиcт:
01. Nozomi 4:19
02. Nebula 4:37
03. Muted 4:16
04. The Way Home 5:49
05. The Tenth Planet 5:53

2010 - Lost In The Void (Single)

Битрейт: 320 кб/с
Продолжительноcть: 00:10:16
Треклиcт:
01. Sphere 5:07
02. Lost In The Void 5:11

2010 - Endless Route (Single)

Битрейт: 320 кб/с
Продолжительноcть: 00:12:36
Треклиcт:
01. Endless Route 4:28
02. Serenity 3:52
03. Roswell 47(demo) 4:12

2011 - Shadows Of The Past

Битрейт: 320 кб/с
Продолжительноcть: 00:30:44
Треклиcт:
01. Point Of No Return 4:30
02. My Sorrow 4:58
03. Falling Rain 2:29
04. Embraced By The Mist 2:45
05. Melted Sky 5:08
06. Tensity 2:34
07. Shadows Of The Past 3:50
08. On The Verge Of Decay 4:27

2013 - Imminence

Битрейт: 320 кб/с
Продолжительноcть: 00:33:30
Треклиcт:
01. Imminence 4:31
02. Wheel Of Time 4:34
03. Away 5:07
04. Hidden Path 4:24
05. On The Edge 4:59
06. Last Mile 4:54
07. A Storm Was Gathering 4:58

Об исполнителе (группе)

Sleep Dealer - это проект одного музыканта. Сочиняя музыку в разных стилях: от металла до классики, музыкант решил сосредоточиться на пост роке и в ноябре 2009 создал свой проект Sleep Dealer. В короткое время были записаны несколько треков, 5 из которых вошли в дебютный EP «The way home», а один из них (6-й) позже появится на втором сингле «Endless Route» в демо версии.
Вскоре после дебютного EP выходит сингл «Lost In The Void», который продолжает тему космоса в музыке. В июле 2010 выходит второй сингл Sleep Dealer «Endless Route», который был высоко оценен слушателями. Музыка Sleep Dealer отличается глубиной, атмосферностью и мелодичностью, не оставляя никого равнодушным.

отчёт MediaInfo

Код:

Общее
Полное имя                               : E:\temp_music\Sleep Dealer - Дискография (2009-2013)\2009 - The Way Home EP\01 Nozomi.mp3
Формат                                   : MPEG Audio
Размер файла                             : 9,91 Мбайт
Продолжительность                        : 4 м. 18 с.
Режим общего битрейта                    : Постоянный
Общий поток                              : 320 Кбит/сек
Альбом                                   : The Way Home EP
Альбом/Исполнитель                       : Sleep Dealer
Трек                                     : Nozomi
Трек/Положение                           : 1
Исполнитель                              : Sleep Dealer
Жанр                                     : Post-Rock
Дата записи                              : 2009
Библиотека кодирования                   : LAME3.97ЄЄЄЄЄЄЄЄЄЄЄЄ
BPM                                      : 100
Обложка                                  : Yes
MIME-тип обложки                         : image/jpeg
Примечание                               : релиз на интернет-лейбл Radi

Аудио
Формат                                   : MPEG Audio
Версия формата                           : Version 1
Профиль формата                          : Layer 3
Режим                                    : Joint stereo
Продолжительность                        : 4 м. 19 с.
Вид битрейта                             : Постоянный
Битрейт                                  : 320 Кбит/сек
Каналы                                   : 2 канала
Частота                                  : 44,1 КГц
Метод сжатия                             : С потерями
Размер потока                            : 9,88 Мбайт (100%)
Библиотека кодирования                   : LAME3.97ЄЄЄЄЄЄЄЄЄЄЄЄ

Общее
Полное имя                               : E:\temp_music\Sleep Dealer - Дискография (2009-2013)\2009 - The Way Home EP\02 Nebula.mp3
Формат                                   : MPEG Audio
Размер файла                             : 6,36 Мбайт
Продолжительность                        : 4 м. 36 с.
Режим общего битрейта                    : Постоянный
Общий поток                              : 192 Кбит/сек
Альбом                                   : The Way Home EP
Альбом/Исполнитель                       : Sleep Dealer
Трек                                     : Nebula
Трек/Положение                           : 2
Исполнитель                              : Sleep Dealer
Кодирование произвёл                     : LAME in FL Studio 8
Жанр                                     : Post-Rock
Дата записи                              : 2009
Библиотека кодирования                   : LAME3.97
BPM                                      : 140
Обложка                                  : Yes
MIME-тип обложки                         : image/jpeg
Примечание                               : релиз на интернет-лейбл Radi

Аудио
Формат                                   : MPEG Audio
Версия формата                           : Version 1
Профиль формата                          : Layer 3
Режим                                    : Joint stereo
Продолжительность                        : 4 м. 37 с.
Вид битрейта                             : Постоянный
Битрейт                                  : 192 Кбит/сек
Каналы                                   : 2 канала
Частота                                  : 44,1 КГц
Метод сжатия                             : С потерями
Размер потока                            : 6,33 Мбайт (99%)
Библиотека кодирования                   : LAME3.97

Общее
Полное имя                               : E:\temp_music\Sleep Dealer - Дискография (2009-2013)\2009 - The Way Home EP\03 Muted.mp3
Формат                                   : MPEG Audio
Размер файла                             : 5,89 Мбайт
Продолжительность                        : 4 м. 16 с.
Режим общего битрейта                    : Постоянный
Общий поток                              : 192 Кбит/сек
Альбом                                   : The Way Home EP
Альбом/Исполнитель                       : Sleep Dealer
Трек                                     : Muted
Трек/Положение                           : 3
Исполнитель                              : Sleep Dealer
Кодирование произвёл                     : LAME in FL Studio 8
Жанр                                     : Post-Rock
Дата записи                              : 2009
Библиотека кодирования                   : LAME3.97
BPM                                      : 75
Обложка                                  : Yes
MIME-тип обложки                         : image/jpeg
Примечание                               : релиз на интернет-лейбл Radi

Аудио
Формат                                   : MPEG Audio
Версия формата                           : Version 1
Профиль формата                          : Layer 3
Режим                                    : Joint stereo
Расширение режима                        : MS Stereo
Продолжительность                        : 4 м. 16 с.
Вид битрейта                             : Постоянный
Битрейт                                  : 192 Кбит/сек
Каналы                                   : 2 канала
Частота                                  : 44,1 КГц
Метод сжатия                             : С потерями
Размер потока                            : 5,86 Мбайт (99%)
Библиотека кодирования                   : LAME3.97

Общее
Полное имя                               : E:\temp_music\Sleep Dealer - Дискография (2009-2013)\2009 - The Way Home EP\04 The way home.mp3
Формат                                   : MPEG Audio
Размер файла                             : 8,02 Мбайт
Продолжительность                        : 5 м. 48 с.
Режим общего битрейта                    : Постоянный
Общий поток                              : 192 Кбит/сек
Альбом                                   : The Way Home EP
Альбом/Исполнитель                       : Sleep Dealer
Трек                                     : The Way Home
Трек/Положение                           : 4
Исполнитель                              : Sleep Dealer
Кодирование произвёл                     : LAME in FL Studio 8
Жанр                                     : Post-Rock
Дата записи                              : 2009
Библиотека кодирования                   : LAME3.97Є
BPM                                      : 75
Обложка                                  : Yes
MIME-тип обложки                         : image/jpeg
Примечание                               : релиз на интернет-лейбл Radi

Аудио
Формат                                   : MPEG Audio
Версия формата                           : Version 1
Профиль формата                          : Layer 3
Режим                                    : Joint stereo
Расширение режима                        : MS Stereo
Продолжительность                        : 5 м. 49 с.
Вид битрейта                             : Постоянный
Битрейт                                  : 192 Кбит/сек
Каналы                                   : 2 канала
Частота                                  : 44,1 КГц
Метод сжатия                             : С потерями
Размер потока                            : 7,98 Мбайт (100%)
Библиотека кодирования                   : LAME3.97Є

Общее
Полное имя                               : E:\temp_music\Sleep Dealer - Дискография (2009-2013)\2009 - The Way Home EP\05 The tenth planet.mp3
Формат                                   : MPEG Audio
Размер файла                             : 8,11 Мбайт
Продолжительность                        : 5 м. 53 с.
Режим общего битрейта                    : Постоянный
Общий поток                              : 192 Кбит/сек
Альбом                                   : The Way Home EP
Альбом/Исполнитель                       : Sleep Dealer
Трек                                     : The Tenth Planet
Трек/Положение                           : 5
Исполнитель                              : Sleep Dealer
Кодирование произвёл                     : LAME in FL Studio 8
Жанр                                     : Post-Rock
Дата записи                              : 2009
Библиотека кодирования                   : LAME3.97
BPM                                      : 140
Обложка                                  : Yes
MIME-тип обложки                         : image/jpeg
Примечание                               : релиз на интернет-лейбл Radi

Аудио
Формат                                   : MPEG Audio
Версия формата                           : Version 1
Профиль формата                          : Layer 3
Режим                                    : Joint stereo
Расширение режима                        : MS Stereo
Продолжительность                        : 5 м. 53 с.
Вид битрейта                             : Постоянный
Битрейт                                  : 192 Кбит/сек
Каналы                                   : 2 канала
Частота                                  : 44,1 КГц
Метод сжатия                             : С потерями
Размер потока                            : 8,08 Мбайт (100%)
Библиотека кодирования                   : LAME3.97

Общее
Полное имя                               : E:\temp_music\Sleep Dealer - Дискография (2009-2013)\2009 - The Way Home EP\cover.jpg
Формат                                   : JPEG
Размер файла                             : 32,5 Кбайт

Изображения
Формат                                   : JPEG
Ширина                                   : 300 пикселей
Высота                                   : 300 пикселей
Цветовое пространство                    : YUV
Субдискретизация насыщенности            : 4:4:4
Битовая глубина                          : 8 бит
Метод сжатия                             : С потерями
Размер потока                            : 32,5 Кбайт (100%)

Общее
Полное имя                               : E:\temp_music\Sleep Dealer - Дискография (2009-2013)\2010 - Endless Route [Single]\01-Endless Route.mp3
Формат                                   : MPEG Audio
Размер файла                             : 6,17 Мбайт
Продолжительность                        : 4 м. 29 с.
Режим общего битрейта                    : Постоянный
Общий поток                              : 192 Кбит/сек
Альбом                                   : Endless Route
Трек/Положение                           : 1
Исполнитель                              : Sleep Dealer
Жанр                                     : Other
Дата записи                              : 2010

Аудио
Формат                                   : MPEG Audio
Версия формата                           : Version 1
Профиль формата                          : Layer 3
Режим                                    : Joint stereo
Продолжительность                        : 4 м. 29 с.
Вид битрейта                             : Постоянный
Битрейт                                  : 192 Кбит/сек
Каналы                                   : 2 канала
Частота                                  : 44,1 КГц
Метод сжатия                             : С потерями
Размер потока                            : 6,17 Мбайт (100%)

Общее
Полное имя                               : E:\temp_music\Sleep Dealer - Дискография (2009-2013)\2010 - Endless Route [Single]\02-Serenity.mp3
Формат                                   : MPEG Audio
Размер файла                             : 8,89 Мбайт
Продолжительность                        : 3 м. 52 с.
Режим общего битрейта                    : Постоянный
Общий поток                              : 320 Кбит/сек
Альбом                                   : Endless Route
Трек/Положение                           : 2
Исполнитель                              : Sleep Dealer
Жанр                                     : Other
Дата записи                              : 2010

Аудио
Формат                                   : MPEG Audio
Версия формата                           : Version 1
Профиль формата                          : Layer 3
Режим                                    : Joint stereo
Продолжительность                        : 3 м. 53 с.
Вид битрейта                             : Постоянный
Битрейт                                  : 320 Кбит/сек
Каналы                                   : 2 канала
Частота                                  : 44,1 КГц
Метод сжатия                             : С потерями
Размер потока                            : 8,89 Мбайт (100%)

Общее
Полное имя                               : E:\temp_music\Sleep Dealer - Дискография (2009-2013)\2010 - Endless Route [Single]\03-Roswell 47 (demo).mp3
Формат                                   : MPEG Audio
Размер файла                             : 9,68 Мбайт
Продолжительность                        : 4 м. 13 с.
Режим общего битрейта                    : Постоянный
Общий поток                              : 320 Кбит/сек
Альбом                                   : Endless Route
Трек/Положение                           : 3
Исполнитель                              : Sleep Dealer
Кодирование произвёл                     : LAME in FL Studio 8
Жанр                                     : Other
Дата записи                              : 2010
Библиотека кодирования                   : LAME3.97
BPM                                      : 240

Аудио
Формат                                   : MPEG Audio
Версия формата                           : Version 1
Профиль формата                          : Layer 3
Режим                                    : Joint stereo
Продолжительность                        : 4 м. 13 с.
Вид битрейта                             : Постоянный
Битрейт                                  : 320 Кбит/сек
Каналы                                   : 2 канала
Частота                                  : 44,1 КГц
Метод сжатия                             : С потерями
Размер потока                            : 9,68 Мбайт (100%)
Библиотека кодирования                   : LAME3.97

Общее
Полное имя                               : E:\temp_music\Sleep Dealer - Дискография (2009-2013)\2010 - Endless Route [Single]\cover.jpg
Формат                                   : JPEG
Размер файла                             : 222 Кбайт

Изображения
Формат                                   : JPEG
Ширина                                   : 544 пикселя
Высота                                   : 507 пикселей
Цветовое пространство                    : YUV
Субдискретизация насыщенности            : 4:4:4
Битовая глубина                          : 8 бит
Метод сжатия                             : С потерями
Размер потока                            : 222 Кбайт (100%)

Общее
Полное имя                               : E:\temp_music\Sleep Dealer - Дискография (2009-2013)\2010 - Lost In The Void [Single]\01.Sleep Dealer-Sphere.mp3
Формат                                   : MPEG Audio
Размер файла                             : 11,8 Мбайт
Продолжительность                        : 5 м. 8 с.
Режим общего битрейта                    : Постоянный
Общий поток                              : 320 Кбит/сек
Альбом                                   : Lost In The Void
Трек                                     : Sphere
Исполнитель                              : Sleep Dealer
Кодирование произвёл                     : LAME in FL Studio 8
Жанр                                     : Other
Дата записи                              : 2010
Библиотека кодирования                   : LAME3.97
BPM                                      : 100

Аудио
Формат                                   : MPEG Audio
Версия формата                           : Version 1
Профиль формата                          : Layer 3
Режим                                    : Joint stereo
Продолжительность                        : 5 м. 8 с.
Вид битрейта                             : Постоянный
Битрейт                                  : 320 Кбит/сек
Каналы                                   : 2 канала
Частота                                  : 44,1 КГц
Метод сжатия                             : С потерями
Размер потока                            : 11,8 Мбайт (100%)
Библиотека кодирования                   : LAME3.97

Общее
Полное имя                               : E:\temp_music\Sleep Dealer - Дискография (2009-2013)\2010 - Lost In The Void [Single]\02.Sleep Dealer-Lost In The Void.mp3
Формат                                   : MPEG Audio
Размер файла                             : 11,8 Мбайт
Продолжительность                        : 5 м. 8 с.
Режим общего битрейта                    : Постоянный
Общий поток                              : 320 Кбит/сек
Альбом                                   : Lost In The Void
Трек                                     : Lost In The Void
Трек/Положение                           : 2
Исполнитель                              : Sleep Dealer
Жанр                                     : Other
Дата записи                              : 2010

Аудио
Формат                                   : MPEG Audio
Версия формата                           : Version 1
Профиль формата                          : Layer 3
Режим                                    : Joint stereo
Продолжительность                        : 5 м. 8 с.
Вид битрейта                             : Постоянный
Битрейт                                  : 320 Кбит/сек
Каналы                                   : 2 канала
Частота                                  : 44,1 КГц
Метод сжатия                             : С потерями
Размер потока                            : 11,8 Мбайт (100%)

Общее
Полное имя                               : E:\temp_music\Sleep Dealer - Дискография (2009-2013)\2010 - Lost In The Void [Single]\cover.jpg
Формат                                   : JPEG
Размер файла                             : 92,7 Кбайт

Изображения
Формат                                   : JPEG
Ширина                                   : 500 пикселей
Высота                                   : 450 пикселей
Цветовое пространство                    : YUV
Субдискретизация насыщенности            : 4:4:4
Битовая глубина                          : 8 бит
Метод сжатия                             : С потерями
Размер потока                            : 92,7 Кбайт (100%)

Общее
Полное имя                               : E:\temp_music\Sleep Dealer - Дискография (2009-2013)\2011 - Shadows of the past\01.Point Of No Return.mp3
Формат                                   : MPEG Audio
Размер файла                             : 10,3 Мбайт
Продолжительность                        : 4 м. 30 с.
Режим общего битрейта                    : Постоянный
Общий поток                              : 320 Кбит/сек
Альбом                                   : Shadows Of The Past
Трек                                     : Point Of No Return
Трек/Положение                           : 1
Исполнитель                              : Sleep Dealer
Жанр                                     : Post-Rock
Дата записи                              : 2011

Аудио
Формат                                   : MPEG Audio
Версия формата                           : Version 1
Профиль формата                          : Layer 3
Режим                                    : Joint stereo
Продолжительность                        : 4 м. 31 с.
Вид битрейта                             : Постоянный
Битрейт                                  : 320 Кбит/сек
Каналы                                   : 2 канала
Частота                                  : 44,1 КГц
Метод сжатия                             : С потерями
Размер потока                            : 10,3 Мбайт (100%)

Общее
Полное имя                               : E:\temp_music\Sleep Dealer - Дискография (2009-2013)\2011 - Shadows of the past\02.My Sorrow.mp3
Формат                                   : MPEG Audio
Размер файла                             : 11,4 Мбайт
Продолжительность                        : 4 м. 58 с.
Режим общего битрейта                    : Постоянный
Общий поток                              : 320 Кбит/сек
Альбом                                   : Shadows Of The Past
Трек                                     : My Sorrow
Трек/Положение                           : 2
Исполнитель                              : Sleep Dealer
Жанр                                     : Post-Rock
Дата записи                              : 2011

Аудио
Формат                                   : MPEG Audio
Версия формата                           : Version 1
Профиль формата                          : Layer 3
Режим                                    : Joint stereo
Продолжительность                        : 4 м. 58 с.
Вид битрейта                             : Постоянный
Битрейт                                  : 320 Кбит/сек
Каналы                                   : 2 канала
Частота                                  : 44,1 КГц
Метод сжатия                             : С потерями
Размер потока                            : 11,4 Мбайт (100%)

Общее
Полное имя                               : E:\temp_music\Sleep Dealer - Дискография (2009-2013)\2011 - Shadows of the past\03.Falling Rain.mp3
Формат                                   : MPEG Audio
Размер файла                             : 5,71 Мбайт
Продолжительность                        : 2 м. 29 с.
Режим общего битрейта                    : Постоянный
Общий поток                              : 320 Кбит/сек
Альбом                                   : Shadows Of The Past
Трек                                     : Falling Rain
Трек/Положение                           : 3
Исполнитель                              : Sleep Dealer
Жанр                                     : Post-Rock
Дата записи                              : 2011

Аудио
Формат                                   : MPEG Audio
Версия формата                           : Version 1
Профиль формата                          : Layer 3
Режим                                    : Joint stereo
Продолжительность                        : 2 м. 29 с.
Вид битрейта                             : Постоянный
Битрейт                                  : 320 Кбит/сек
Каналы                                   : 2 канала
Частота                                  : 44,1 КГц
Метод сжатия                             : С потерями
Размер потока                            : 5,71 Мбайт (100%)

Общее
Полное имя                               : E:\temp_music\Sleep Dealer - Дискография (2009-2013)\2011 - Shadows of the past\04.Embraced By The Mist.mp3
Формат                                   : MPEG Audio
Размер файла                             : 6,30 Мбайт
Продолжительность                        : 2 м. 45 с.
Режим общего битрейта                    : Постоянный
Общий поток                              : 320 Кбит/сек
Альбом                                   : Shadows Of The Past
Трек                                     : Embraced By The Mist
Трек/Положение                           : 4
Исполнитель                              : Sleep Dealer
Жанр                                     : Post-Rock
Дата записи                              : 2011

Аудио
Формат                                   : MPEG Audio
Версия формата                           : Version 1
Профиль формата                          : Layer 3
Режим                                    : Joint stereo
Продолжительность                        : 2 м. 45 с.
Вид битрейта                             : Постоянный
Битрейт                                  : 320 Кбит/сек
Каналы                                   : 2 канала
Частота                                  : 44,1 КГц
Метод сжатия                             : С потерями
Размер потока                            : 6,30 Мбайт (100%)

Общее
Полное имя                               : E:\temp_music\Sleep Dealer - Дискография (2009-2013)\2011 - Shadows of the past\05.Melted Sky.mp3
Формат                                   : MPEG Audio
Размер файла                             : 11,8 Мбайт
Продолжительность                        : 5 м. 8 с.
Режим общего битрейта                    : Постоянный
Общий поток                              : 320 Кбит/сек
Альбом                                   : Shadows Of The Past
Трек                                     : Melted Sky
Трек/Положение                           : 5
Исполнитель                              : Sleep Dealer
Жанр                                     : Post-Rock
Дата записи                              : 2011

Аудио
Формат                                   : MPEG Audio
Версия формата                           : Version 1
Профиль формата                          : Layer 3
Режим                                    : Joint stereo
Продолжительность                        : 5 м. 8 с.
Вид битрейта                             : Постоянный
Битрейт                                  : 320 Кбит/сек
Каналы                                   : 2 канала
Частота                                  : 44,1 КГц
Метод сжатия                             : С потерями
Размер потока                            : 11,8 Мбайт (100%)

Общее
Полное имя                               : E:\temp_music\Sleep Dealer - Дискография (2009-2013)\2011 - Shadows of the past\06.Tensity.mp3
Формат                                   : MPEG Audio
Размер файла                             : 5,89 Мбайт
Продолжительность                        : 2 м. 34 с.
Режим общего битрейта                    : Постоянный
Общий поток                              : 320 Кбит/сек
Альбом                                   : Shadows Of The Past
Трек                                     : Tensity
Трек/Положение                           : 6
Исполнитель                              : Sleep Dealer
Жанр                                     : Post-Rock
Дата записи                              : 2011

Аудио
Формат                                   : MPEG Audio
Версия формата                           : Version 1
Профиль формата                          : Layer 3
Режим                                    : Joint stereo
Продолжительность                        : 2 м. 34 с.
Вид битрейта                             : Постоянный
Битрейт                                  : 320 Кбит/сек
Каналы                                   : 2 канала
Частота                                  : 44,1 КГц
Метод сжатия                             : С потерями
Размер потока                            : 5,89 Мбайт (100%)

Общее
Полное имя                               : E:\temp_music\Sleep Dealer - Дискография (2009-2013)\2011 - Shadows of the past\07.Shadows Of The Past.mp3
Формат                                   : MPEG Audio
Размер файла                             : 8,78 Мбайт
Продолжительность                        : 3 м. 50 с.
Режим общего битрейта                    : Постоянный
Общий поток                              : 320 Кбит/сек
Альбом                                   : Shadows Of The Past
Трек                                     : Shadows Of The Past
Трек/Положение                           : 7
Исполнитель                              : Sleep Dealer
Жанр                                     : Post-Rock
Дата записи                              : 2011

Аудио
Формат                                   : MPEG Audio
Версия формата                           : Version 1
Профиль формата                          : Layer 3
Режим                                    : Joint stereo
Продолжительность                        : 3 м. 50 с.
Вид битрейта                             : Постоянный
Битрейт                                  : 320 Кбит/сек
Каналы                                   : 2 канала
Частота                                  : 44,1 КГц
Метод сжатия                             : С потерями
Размер потока                            : 8,78 Мбайт (100%)

Общее
Полное имя                               : E:\temp_music\Sleep Dealer - Дискография (2009-2013)\2011 - Shadows of the past\08.On The Verge Of Decay.mp3
Формат                                   : MPEG Audio
Размер файла                             : 10,2 Мбайт
Продолжительность                        : 4 м. 27 с.
Режим общего битрейта                    : Постоянный
Общий поток                              : 320 Кбит/сек
Альбом                                   : Shadows Of The Past
Трек                                     : On The Verge Of Decay
Трек/Положение                           : 8
Исполнитель                              : Sleep Dealer
Жанр                                     : Post-Rock
Дата записи                              : 2011

Аудио
Формат                                   : MPEG Audio
Версия формата                           : Version 1
Профиль формата                          : Layer 3
Режим                                    : Joint stereo
Продолжительность                        : 4 м. 27 с.
Вид битрейта                             : Постоянный
Битрейт                                  : 320 Кбит/сек
Каналы                                   : 2 канала
Частота                                  : 44,1 КГц
Метод сжатия                             : С потерями
Размер потока                            : 10,2 Мбайт (100%)

Общее
Полное имя                               : E:\temp_music\Sleep Dealer - Дискография (2009-2013)\2013 - Imminence\01 Imminence.mp3
Формат                                   : MPEG Audio
Размер файла                             : 10,5 Мбайт
Продолжительность                        : 4 м. 31 с.
Режим общего битрейта                    : Постоянный
Общий поток                              : 320 Кбит/сек
Альбом                                   : Imminence
Альбом/Исполнитель                       : Sleep Dealer
Трек                                     : Imminence
Трек/Положение                           : 1
Исполнитель                              : Sleep Dealer
Дата записи                              : 2013
Библиотека кодирования                   : LAME3.99r
Обложка                                  : Yes
Описание обложки                         : cover
Тип обложки                              : Cover (front)
MIME-тип обложки                         : image/jpeg
Примечание                               : Visit http://sleepdealer.bandcamp.com

Аудио
Формат                                   : MPEG Audio
Версия формата                           : Version 1
Профиль формата                          : Layer 3
Режим                                    : Joint stereo
Расширение режима                        : MS Stereo
Продолжительность                        : 4 м. 32 с.
Вид битрейта                             : Постоянный
Битрейт                                  : 320 Кбит/сек
Каналы                                   : 2 канала
Частота                                  : 44,1 КГц
Метод сжатия                             : С потерями
Размер потока                            : 10,4 Мбайт (99%)
Библиотека кодирования                   : LAME3.99r
Настройки программы                      : -m j -V 4 -q 3 -lowpass 20.5

Общее
Полное имя                               : E:\temp_music\Sleep Dealer - Дискография (2009-2013)\2013 - Imminence\02 Wheel Of Time.mp3
Формат                                   : MPEG Audio
Размер файла                             : 10,6 Мбайт
Продолжительность                        : 4 м. 34 с.
Режим общего битрейта                    : Постоянный
Общий поток                              : 320 Кбит/сек
Альбом                                   : Imminence
Альбом/Исполнитель                       : Sleep Dealer
Трек                                     : Wheel Of Time
Трек/Положение                           : 2
Исполнитель                              : Sleep Dealer
Дата записи                              : 2013
Библиотека кодирования                   : LAME3.99r
Обложка                                  : Yes
Описание обложки                         : cover
Тип обложки                              : Cover (front)
MIME-тип обложки                         : image/jpeg
Примечание                               : Visit http://sleepdealer.bandcamp.com

Аудио
Формат                                   : MPEG Audio
Версия формата                           : Version 1
Профиль формата                          : Layer 3
Режим                                    : Joint stereo
Продолжительность                        : 4 м. 34 с.
Вид битрейта                             : Постоянный
Битрейт                                  : 320 Кбит/сек
Каналы                                   : 2 канала
Частота                                  : 44,1 КГц
Метод сжатия                             : С потерями
Размер потока                            : 10,5 Мбайт (99%)
Библиотека кодирования                   : LAME3.99r
Настройки программы                      : -m j -V 4 -q 3 -lowpass 20.5

Общее
Полное имя                               : E:\temp_music\Sleep Dealer - Дискография (2009-2013)\2013 - Imminence\03 Away.mp3
Формат                                   : MPEG Audio
Размер файла                             : 11,9 Мбайт
Продолжительность                        : 5 м. 7 с.
Режим общего битрейта                    : Постоянный
Общий поток                              : 320 Кбит/сек
Альбом                                   : Imminence
Альбом/Исполнитель                       : Sleep Dealer
Трек                                     : Away
Трек/Положение                           : 3
Исполнитель                              : Sleep Dealer
Дата записи                              : 2013
Библиотека кодирования                   : LAME3.99r
Обложка                                  : Yes
Описание обложки                         : cover
Тип обложки                              : Cover (front)
MIME-тип обложки                         : image/jpeg
Примечание                               : Visit http://sleepdealer.bandcamp.com

Аудио
Формат                                   : MPEG Audio
Версия формата                           : Version 1
Профиль формата                          : Layer 3
Режим                                    : Joint stereo
Расширение режима                        : MS Stereo
Продолжительность                        : 5 м. 7 с.
Вид битрейта                             : Постоянный
Битрейт                                  : 320 Кбит/сек
Каналы                                   : 2 канала
Частота                                  : 44,1 КГц
Метод сжатия                             : С потерями
Размер потока                            : 11,7 Мбайт (99%)
Библиотека кодирования                   : LAME3.99r
Настройки программы                      : -m j -V 4 -q 3 -lowpass 20.5

Общее
Полное имя                               : E:\temp_music\Sleep Dealer - Дискография (2009-2013)\2013 - Imminence\04 Hidden Path.mp3
Формат                                   : MPEG Audio
Размер файла                             : 10,2 Мбайт
Продолжительность                        : 4 м. 24 с.
Режим общего битрейта                    : Постоянный
Общий поток                              : 320 Кбит/сек
Альбом                                   : Imminence
Альбом/Исполнитель                       : Sleep Dealer
Трек                                     : Hidden Path
Трек/Положение                           : 4
Исполнитель                              : Sleep Dealer
Дата записи                              : 2013
Библиотека кодирования                   : LAME3.99r
Обложка                                  : Yes
Описание обложки                         : cover
Тип обложки                              : Cover (front)
MIME-тип обложки                         : image/jpeg
Примечание                               : Visit http://sleepdealer.bandcamp.com

Аудио
Формат                                   : MPEG Audio
Версия формата                           : Version 1
Профиль формата                          : Layer 3
Режим                                    : Joint stereo
Продолжительность                        : 4 м. 24 с.
Вид битрейта                             : Постоянный
Битрейт                                  : 320 Кбит/сек
Каналы                                   : 2 канала
Частота                                  : 44,1 КГц
Метод сжатия                             : С потерями
Размер потока                            : 10,1 Мбайт (99%)
Библиотека кодирования                   : LAME3.99r
Настройки программы                      : -m j -V 4 -q 3 -lowpass 20.5

Общее
Полное имя                               : E:\temp_music\Sleep Dealer - Дискография (2009-2013)\2013 - Imminence\05 On The Edge.mp3
Формат                                   : MPEG Audio
Размер файла                             : 11,6 Мбайт
Продолжительность                        : 4 м. 59 с.
Режим общего битрейта                    : Постоянный
Общий поток                              : 320 Кбит/сек
Альбом                                   : Imminence
Альбом/Исполнитель                       : Sleep Dealer
Трек                                     : On The Edge
Трек/Положение                           : 5
Исполнитель                              : Sleep Dealer
Дата записи                              : 2013
Библиотека кодирования                   : LAME3.99r
Обложка                                  : Yes
Описание обложки                         : cover
Тип обложки                              : Cover (front)
MIME-тип обложки                         : image/jpeg
Примечание                               : Visit http://sleepdealer.bandcamp.com

Аудио
Формат                                   : MPEG Audio
Версия формата                           : Version 1
Профиль формата                          : Layer 3
Режим                                    : Joint stereo
Продолжительность                        : 4 м. 59 с.
Вид битрейта                             : Постоянный
Битрейт                                  : 320 Кбит/сек
Каналы                                   : 2 канала
Частота                                  : 44,1 КГц
Метод сжатия                             : С потерями
Размер потока                            : 11,4 Мбайт (99%)
Библиотека кодирования                   : LAME3.99r
Настройки программы                      : -m j -V 4 -q 3 -lowpass 20.5

Общее
Полное имя                               : E:\temp_music\Sleep Dealer - Дискография (2009-2013)\2013 - Imminence\06 Last Mile.mp3
Формат                                   : MPEG Audio
Размер файла                             : 11,4 Мбайт
Продолжительность                        : 4 м. 54 с.
Режим общего битрейта                    : Постоянный
Общий поток                              : 320 Кбит/сек
Альбом                                   : Imminence
Альбом/Исполнитель                       : Sleep Dealer
Трек                                     : Last Mile
Трек/Положение                           : 6
Исполнитель                              : Sleep Dealer
Дата записи                              : 2013
Библиотека кодирования                   : LAME3.99r
Обложка                                  : Yes
Описание обложки                         : cover
Тип обложки                              : Cover (front)
MIME-тип обложки                         : image/jpeg
Примечание                               : Visit http://sleepdealer.bandcamp.com

Аудио
Формат                                   : MPEG Audio
Версия формата                           : Version 1
Профиль формата                          : Layer 3
Режим                                    : Joint stereo
Расширение режима                        : MS Stereo
Продолжительность                        : 4 м. 55 с.
Вид битрейта                             : Постоянный
Битрейт                                  : 320 Кбит/сек
Каналы                                   : 2 канала
Частота                                  : 44,1 КГц
Метод сжатия                             : С потерями
Размер потока                            : 11,2 Мбайт (99%)
Библиотека кодирования                   : LAME3.99r
Настройки программы                      : -m j -V 4 -q 3 -lowpass 20.5

Общее
Полное имя                               : E:\temp_music\Sleep Dealer - Дискография (2009-2013)\2013 - Imminence\07 A Storm Was Gathering.mp3
Формат                                   : MPEG Audio
Размер файла                             : 11,5 Мбайт
Продолжительность                        : 4 м. 58 с.
Режим общего битрейта                    : Постоянный
Общий поток                              : 320 Кбит/сек
Альбом                                   : Imminence
Альбом/Исполнитель                       : Sleep Dealer
Трек                                     : A Storm Was Gathering
Трек/Положение                           : 7
Исполнитель                              : Sleep Dealer
Дата записи                              : 2013
Библиотека кодирования                   : LAME3.99r
Обложка                                  : Yes
Описание обложки                         : cover
Тип обложки                              : Cover (front)
MIME-тип обложки                         : image/jpeg
Примечание                               : Visit http://sleepdealer.bandcamp.com

Аудио
Формат                                   : MPEG Audio
Версия формата                           : Version 1
Профиль формата                          : Layer 3
Режим                                    : Joint stereo
Расширение режима                        : MS Stereo
Продолжительность                        : 4 м. 58 с.
Вид битрейта                             : Постоянный
Битрейт                                  : 320 Кбит/сек
Каналы                                   : 2 канала
Частота                                  : 44,1 КГц
Метод сжатия                             : С потерями
Размер потока                            : 11,4 Мбайт (99%)
Библиотека кодирования                   : LAME3.99r
Настройки программы                      : -m j -V 4 -q 3 -lowpass 20.5

Общее
Полное имя                               : E:\temp_music\Sleep Dealer - Дискография (2009-2013)\2013 - Imminence\cover.jpg
Формат                                   : JPEG
Размер файла                             : 310 Кбайт

Изображения
Формат                                   : JPEG
Ширина                                   : 800 пикселей
Высота                                   : 800 пикселей
Цветовое пространство                    : YUV
Субдискретизация насыщенности            : 4:4:4
Битовая глубина                          : 8 бит
Метод сжатия                             : С потерями
Размер потока                            : 310 Кбайт (100%)

Треклист:
Список альбомов:
2009 - The Way Home (EP)
2010 - Lost In The Void (Single)
2010 - Endless Route (Single)
2011 - Shadows Of The Past
2013 - Imminence

Детали торрента:
Название:Sleep Dealer - 3 альбома, 2 сингла (2009-2013) [MP3|192-320 кб/с]<Post rock, Ambient>
Дата добавления:28 Дек 2014 14:37:05
Размер:235 MB
Раздают:1
Качают:0
Форум:Alternative, Punk

All rights reserved © 2015-2018