TORRENTS45.XYZ

Скачать Трофейная Германия (2014) HDTV [H.264/1080i]


Трофейная Германия (2014) HDTV [H.264/1080i]
Режиссер / Телекомпания: Сергей Краус /
Страна: Россия
Год выпуска: 2014
Жанр: Документальный, история

Продолжительность: 00:44:16

Субтитры: отсутствуют

Формат файла: TS
Видеокодек: MPEG-4 AVC/H.264
Битрейт видео: ~7 500 Кбит/с
Размер кадра: 1920 x 1080
Качество видео: HDTV [1080i]
Аудио: MP2, 2 ch, 192 Кбит/с

Описание: Кто, что, зачем и в каких количествах вывез из покоренной Европы в 1944 - 1949 годах в СССР? До начала 90-х в отечественных СМИ, не говоря уже о серьезной научной и мемуарной литературе, эта тема по понятным причинам не освещалась, да и к настоящему времени по ней не опубликовано сколько-нибудь качественных обобщенных исследований. Между тем, изучение этого вопроса может дать представление о социально-экономических особенностях непростой послевоенной эпохи и о психологии тогдашних советских людей, впервые после 1917 года оказавшихся в западном "обществе потребления". Уже летом 1945 года из Германии и Австрии в СССР пошли эшелоны с оборудованием для спешно восстанавливаемой советской промышленности - до сих пор на некоторых производствах Москвы и Подмосковья трудятся сработанные на совесть уникальные "трофейные станки". Строго засекреченной на протяжении нескольких послевоенных десятилетий была судьба попавших в запасники советских музеев европейских художественных коллекций, которые до сих пор служат "яблоками раздора" между нынешними обладателями в России и наследниками изначальных владельцев этих культурных ценностей...

MediaInfo

Общее
Идентификатор : 1 (0x1)
Полное имя : D:\Релизы\Трофейная.Германия.2014.HDTV.1080i.ts
Формат : MPEG-TS
Размер файла : 2,51 Гбайт
Продолжительность : 44 м.
Режим общего битрейта : Переменный
Общий поток : 8131 Кбит/сек

Видео
Идентификатор : 306 (0x132)
Идентификатор меню : 1 (0x1)
Формат : AVC
Формат/Информация : Advanced Video Codec
Профиль формата : High@L4.0
Параметр CABAC формата : Да
Параметр ReFrames формата : 4 кадра
Идентификатор кодека : 27
Продолжительность : 44 м.
Битрейт : 7535 Кбит/сек
Ширина : 1920 пикселей
Высота : 1080 пикселей
Соотношение сторон : 16:9
Частота кадров : 25,000 кадров/сек
Стандарт вещания : Component
Цветовое пространство : YUV
Субдискретизация насыщенности : 4:2:0
Битовая глубина : 8 бит
Тип развёртки : Чересстрочная
Порядок развёртки : Верхнее поле первое
Бит/(Пиксели*Кадры) : 0.145
Размер потока : 2,33 Гбайт (93%)
Основные цвета : BT.709
Характеристики трансфера : BT.709
Коэффициенты матрицы : BT.709

Аудио
Идентификатор : 406 (0x196)
Идентификатор меню : 1 (0x1)
Формат : MPEG Audio
Версия формата : Version 1
Профиль формата : Layer 2
Идентификатор кодека : 3
Продолжительность : 44 м.
Вид битрейта : Постоянный
Битрейт : 192 Кбит/сек
Каналы : 2 канала
Частота : 48,0 КГц
Метод сжатия : С потерями
Задержка видео : -120 мс.
Размер потока : 60,8 Мбайт (2%)
Язык : English
Скриншоты:

Дополнительные скриншоты

Пожалуйста, не уходите с раздачи - помогите докачать другим. Если понравился релиз - жмите кнопку "Спасибо"! :приветствую:

Детали торрента:
Название:Трофейная Германия (2014) HDTV [H.264/1080i]
Дата добавления:25 Дек 2014 22:17:09
Размер:2,51 GB
Раздают:
Качают:0
Форум:Вторая Мировая война

All rights reserved © 2015-2019