TORRENTS45.XYZ

Скачать Стражи Галактики / Guardians of the Galaxy (2014) BDRip [720p] [IMAX]


Стражи Галактики / Guardians of the Galaxy (2014) BDRip [720p]

Год выпуска: 2014
Производство: США | Marvel Studios, Marvel Enterprises, Moving Picture Company (MPC)
Жанр: Фантастика, Боевик, Приключения

Режиссер: Джеймс Ганн
Актеры: Крис Прэтт, Зои Салдана, Дэйв Батиста, Вин Дизель, Брэдли Купер, Ли Пейс, Майкл Рукер, Карен Гиллан, Джимон Хонсу, Джон Си Райли, Бенисио Дель Торо

Описание фильма: Отважному путешественнику Питеру Квиллу попадает в руки таинственный артефакт, принадлежащий могущественному и безжалостному злодею Ронану, строящему коварные планы по захвату Вселенной. Питер оказывается в центре межгалактической охоты, где жертва — он сам.
Перевод: Дублированный / Многоголосый / Авторский
Субтитры: Вшитые, отключаемые
Язык субтитров: Русский (iTunes), Английский (Full, SDH, SDH-COLORED, Commentary)

Дата мировой премьеры: 21 июля 2014
Дата российской премьеры: 31 июля 2014, «WDSSPR» 3D

Продолжительность: 02:00:51
Качество видео: BDRip [720p]

Видеокодек: MPEG4 AVC
Битрейт видео: 7590 Kbps
Размер кадра: 1280x720
Аудио #1: (Русский) 48,0 kHz, AC3 5.1, 640 kb/s | Дубляж, Blu-ray EUR
Аудио #2: (Русский) 48,0 kHz, DTS 5.1, 1510 kb/s | Многоголосый, «OMiCRON»
Аудио #3: (Украинский) 48,0 kHz, DTS 5.1, 1510 kb/s | Дубляж, Disney / Buena Vista
Аудио #4: (Русский) 48,0 kHz, DTS 5.1, 1510 kb/s | Авторский, Ю.Сербин
Аудио #5: (Английский) 48,0 kHz, DTS 5.1, 1510 kb/s | Оригинал
Аудио #6: (Английский) 48,0 kHz, AC3 2.0, 192 kb/s | Commentary with Director James Gunn
Примечание: Сохранены оригинальные чаптеры как на Blu-Ray.

MediaInfo:

Код: выделить все
General
Unique ID                   : 247576662198163499711469538508619912166 (0xBA4187DDA6DEE5129D0F7D8A7A4413E6)
Complete name               : F:\Guardians.of.the.Galaxy.2014.720p.IMAX.mkv
Format                      : Matroska
Format version              : Version 2
File size                   : 12.5 GiB
Duration                    : 2h 1mn
Overall bit rate            : 14.8 Mbps
Movie name                  : Guardians of the Galaxy (2014) [IMAX Edition] - Release for HDCLUB
Encoded date                : UTC 2014-12-07 13:33:14
Writing application         : mkvmerge v3.4.0 ('Rapunzel') built on May 15 2010 09:38:20
Writing library             : libebml v0.8.0 + libmatroska v0.9.0

Video
ID                          : 1
Format                      : AVC
Format/Info                 : Advanced Video Codec
Format profile              : High@L4.1
Format settings, CABAC      : Yes
Format settings, ReFrames   : 9 frames
Codec ID                    : V_MPEG4/ISO/AVC
Duration                    : 2h 1mn
Bit rate                    : 7 590 Kbps
Width                       : 1 280 pixels
Height                      : 720 pixels
Display aspect ratio        : 16:9
Frame rate mode             : Constant
Frame rate                  : 23.976 fps
Color space                 : YUV
Chroma subsampling          : 4:2:0
Bit depth                   : 8 bits
Scan type                   : Progressive
Bits/(Pixel*Frame)          : 0.343
Stream size                 : 6.42 GiB (51%)
Title                       : Guardians of the Galaxy (2014) [IMAX Edition] - Release for HDCLUB
Writing library             : x264 core 142 r2431+42 c69a006 tMod [8-bit@all X86_64]
Encoding settings           : cabac=1 / ref=9 / deblock=1:-3:-3 / analyse=0x3:0x133 / me=esa / subme=11 / psy=1 / fade_compensate=0.00 / psy_rd=1.04:0.00 / mixed_ref=1 / me_range=32 / chroma_me=1 / trellis=2 / 8x8dct=1 / cqm=0 / deadzone=21,11 / fast_pskip=0 / chroma_qp_offset=-2 / threads=12 / lookahead_threads=3 / sliced_threads=0 / nr=0 / decimate=0 / interlaced=0 / bluray_compat=0 / constrained_intra=0 / fgo=0 / bframes=12 / b_pyramid=2 / b_adapt=2 / b_bias=0 / direct=3 / weightb=1 / open_gop=0 / weightp=2 / keyint=250 / keyint_min=23 / scenecut=40 / intra_refresh=0 / rc=crf / mbtree=0 / crf=14.5000 / qcomp=0.64 / qpmin=0:0:0 / qpmax=69:69:69 / qpstep=4 / ip_ratio=1.30 / pb_ratio=1.20 / aq=1:0.84 / aq-sensitivity=10.00 / aq-factor=1.00:1.00:1.00 / aq2=0 / aq3=0
Language                    : English
Default                     : Yes
Forced                      : No
Matrix coefficients         : BT.709
Color range                 : Limited

Audio #1
ID                          : 2
Format                      : AC-3
Format/Info                 : Audio Coding 3
Mode extension              : CM (complete main)
Format settings, Endianness : Big
Codec ID                    : A_AC3
Duration                    : 2h 1mn
Bit rate mode               : Constant
Bit rate                    : 640 Kbps
Channel(s)                  : 6 channels
Channel positions           : Front: L C R, Side: L R, LFE
Sampling rate               : 48.0 KHz
Bit depth                   : 16 bits
Compression mode            : Lossy
Stream size                 : 555 MiB (4%)
Title                       : AC3 5.1 @ 640 kbps - DUB, Blu-ray EUR
Language                    : Russian
Default                     : Yes
Forced                      : No

Audio #2
ID                          : 3
Format                      : DTS
Format/Info                 : Digital Theater Systems
Mode                        : 16
Format settings, Endianness : Big
Codec ID                    : A_DTS
Duration                    : 2h 1mn
Bit rate mode               : Constant
Bit rate                    : 1 509 Kbps
Channel(s)                  : 6 channels
Channel positions           : Front: L C R, Side: L R, LFE
Sampling rate               : 48.0 KHz
Bit depth                   : 24 bits
Compression mode            : Lossy
Stream size                 : 1.28 GiB (10%)
Title                       : DTS 5.1 @ 1536 kbps - MVO, OMiCRON
Language                    : Russian
Default                     : No
Forced                      : No

Audio #3
ID                          : 4
Format                      : DTS
Format/Info                 : Digital Theater Systems
Mode                        : 16
Format settings, Endianness : Big
Codec ID                    : A_DTS
Duration                    : 2h 1mn
Bit rate mode               : Constant
Bit rate                    : 1 509 Kbps
Channel(s)                  : 6 channels
Channel positions           : Front: L C R, Side: L R, LFE
Sampling rate               : 48.0 KHz
Bit depth                   : 24 bits
Compression mode            : Lossy
Stream size                 : 1.28 GiB (10%)
Title                       : DTS 5.1 @ 1536 kbps - DUB, Disney / Buena Vista
Language                    : Ukrainian
Default                     : No
Forced                      : No

Audio #4
ID                          : 5
Format                      : DTS
Format/Info                 : Digital Theater Systems
Mode                        : 16
Format settings, Endianness : Big
Codec ID                    : A_DTS
Duration                    : 2h 1mn
Bit rate mode               : Constant
Bit rate                    : 1 509 Kbps
Channel(s)                  : 6 channels
Channel positions           : Front: L C R, Side: L R, LFE
Sampling rate               : 48.0 KHz
Bit depth                   : 24 bits
Compression mode            : Lossy
Stream size                 : 1.28 GiB (10%)
Title                       : DTS 5.1 @ 1536 kbps - AVO, Y.Serbin
Language                    : Russian
Default                     : No
Forced                      : No

Audio #5
ID                          : 6
Format                      : DTS
Format/Info                 : Digital Theater Systems
Mode                        : 16
Format settings, Endianness : Big
Codec ID                    : A_DTS
Duration                    : 2h 1mn
Bit rate mode               : Constant
Bit rate                    : 1 509 Kbps
Channel(s)                  : 6 channels
Channel positions           : Front: L C R, Side: L R, LFE
Sampling rate               : 48.0 KHz
Bit depth                   : 24 bits
Compression mode            : Lossy
Delay relative to video     : 11ms
Stream size                 : 1.28 GiB (10%)
Title                       : DTS 5.1 @ 1536 kbps
Language                    : English
Default                     : No
Forced                      : No

Audio #6
ID                          : 7
Format                      : AC-3
Format/Info                 : Audio Coding 3
Mode extension              : CM (complete main)
Format settings, Endianness : Big
Codec ID                    : A_AC3
Duration                    : 2h 1mn
Bit rate mode               : Constant
Bit rate                    : 192 Kbps
Channel(s)                  : 2 channels
Channel positions           : Front: L R
Sampling rate               : 48.0 KHz
Bit depth                   : 16 bits
Compression mode            : Lossy
Stream size                 : 166 MiB (1%)
Title                       : AC3 2.0 @ 192 kbps - Commentary with Director James Gunn
Language                    : English
Default                     : No
Forced                      : No

Text #1
ID                          : 8
Format                      : UTF-8
Codec ID                    : S_TEXT/UTF8
Codec ID/Info               : UTF-8 Plain Text
Title                       : iTunes
Language                    : Russian
Default                     : No
Forced                      : No

Text #2
ID                          : 9
Format                      : UTF-8
Codec ID                    : S_TEXT/UTF8
Codec ID/Info               : UTF-8 Plain Text
Language                    : English
Default                     : No
Forced                      : No

Text #3
ID                          : 10
Format                      : UTF-8
Codec ID                    : S_TEXT/UTF8
Codec ID/Info               : UTF-8 Plain Text
Title                       : SDH
Language                    : English
Default                     : No
Forced                      : No

Text #4
ID                          : 11
Format                      : UTF-8
Codec ID                    : S_TEXT/UTF8
Codec ID/Info               : UTF-8 Plain Text
Title                       : SDH-COLORED
Language                    : English
Default                     : No
Forced                      : No

Text #5
ID                          : 12
Format                      : UTF-8
Codec ID                    : S_TEXT/UTF8
Codec ID/Info               : UTF-8 Plain Text
Title                       : Commentary
Language                    : English
Default                     : No
Forced                      : No

Menu
00:00:00.000                : en:Prologue
00:04:05.703                : en:Morag
00:11:21.806                : en:Ronan The Accuser
00:15:21.712                : en:A Man Of Honor
00:20:54.419                : en:The Kyln
00:27:11.212                : en:Crimes Against The Galaxy
00:33:58.828                : en:Escaping The Kyln
00:44:28.290                : en:Knowhere
00:50:53.008                : en:I Do Not Dance
00:55:17.564                : en:The Collector
00:59:45.206                : en:Facing Off With Ronan
01:06:06.921                : en:Something Incredibly Heroic
01:14:46.023                : en:12 Percent Of A Plan
01:22:20.644                : en:The Fleet Approaches
01:26:29.726                : en:Inside The Dark Aster
01:30:23.876                : en:Destroying Xandar
01:35:58.377                : en:Protecting The Guardians
01:40:46.749                : en:Guardians Of The Galaxy
01:47:35.365                : en:Guardians Pardoned
01:53:16.623                : en:End Credits
02:00:10.828                : en:End Tag
Скриншоты:


Смотреть Online

http://moonwalk.cc/video/5a3417d8c4f72e92/iframe
Детали торрента:
Название:Стражи Галактики / Guardians of the Galaxy (2014) BDRip [720p] [IMAX]
Дата добавления:09 Дек 2014 00:16:14
Размер:12,5 GB
Раздают:3
Качают:0
Форум:Зарубежные Фильмы (HD, UHD-LQ)

All rights reserved © 2015-2018