TORRENTS45.XYZ

Скачать Апокалипсис: Вторая мировая война; Гитлер / Apocalypse: The Second World War; Hitler (2009-2011) BDRip [H.264/720p] [Серии 1-8 из 8]


Апокалипсис: Вторая мировая война; Гитлер / Apocalypse: The Second World War; Hitler (2009-2011) BDRip [H.264/720p] [Серии 1-8 из 8]
Режиссер / Телекомпания: Изабелль Кларк, Даниель Костелль / CC&C, Clarke Costelle & Co, ECPAD, NHK
Год выпуска: 2009-2011
Жанр: Документальный

Описание: Зритель познакомится с неизвестными рассекреченными кинокадрами и любительскими съемками, которые рассказывают об эпизодах и событиях Второй мировой войны так, как никто и никогда их раньше не видел.Документальная эпопея «Апокалипсис» рассказывает об огромных внутренних конфликтах и трагических судьбах тех, кто вынужден был участвовать в войне (солдатах), тех, кто пострадал и нес лишения из-за военных действий (мирных жителях), и всех тех, кто развязал и вел эту войну (политиках и военноначальниках). Эта страшная и так хорошо знакомая всем война унесла жизни 50 миллионов мужчин и женщин по всему миру. Впервые в истории в ходе этой войны потери среди гражданского населения сравнялись с потерями среди военнослужащих.


Рейтинг: 12+ зрителям, достигшим 12 лет.

Продолжительность: 8 х ~ 00:54:00
Качество видео: BDRip [720p]

Перевод: Профессиональный (одноголосый) - Табилевич, Гаврилин, Сербин
Язык субтитров: русский
Вид субтитров: Вшитые (отключаемые)

Формат: MKV
Видео: MPEG-4 AVC, 1280x720, ~ 4300 kbps, 25.000 fps, 0.179 bit/pixel
Аудио 1: Russian: AC3 5.1, 48 kHz, 448 kbps - Табилевич, Гаврилин
Аудио 2: Russian: AC3 5.1, 48 kHz, 640 kbps - Сербин
Аудио 3: English: DTS 5.1, 48 kHz, 1509 kbps
Скачать: Сэмпл

MediaInfo

General
Complete name : 01.Aggression.(1933–1939).mkv
Format : Matroska
File size : 1.62 GiB
Duration : 52mn 5s
Overall bit rate : 4 458 Kbps
Movie name : Apocalypse: The Second World War / Развязывание войны / Aggression (1933–1939) / Rip by PowerRock
Encoded date : UTC 2014-02-01 16:40:26
Writing application : mkvmerge v6.7.0 ('Back to the Ground') 32bit built on Jan 8 2014 15:03:17
Writing library : libebml v1.3.0 + libmatroska v1.4.1

Video
ID : 1
Format : AVC
Format/Info : Advanced Video Codec
Format profile : High@L4.1
Format settings, CABAC : Yes
Format settings, ReFrames : 7 frames
Format settings, GOP : M=1, N=2
Muxing mode : Container profile=Unknown@4.1
Codec ID : V_MPEG4/ISO/AVC
Duration : 52mn 5s
Bit rate : 4 007 Kbps
Width : 1 280 pixels
Height : 720 pixels
Display aspect ratio : 16:9
Frame rate : 25.000 fps
Color space : YUV
Chroma subsampling : 4:2:0
Bit depth : 8 bits
Scan type : Progressive
Bits/(Pixel*Frame) : 0.174
Stream size : 1.43 GiB (88%)
Title : Развязывание войны / Aggression (1933–1939)
Writing library : x264 core 125 r2200 999b753
Encoding settings : cabac=1 / ref=7 / deblock=1:-2:-2 / analyse=0x3:0x133 / me=umh / subme=10 / psy=1 / psy_rd=1.00:0.10 / mixed_ref=1 / me_range=24 / chroma_me=1 / trellis=2 / 8x8dct=1 / cqm=0 / deadzone=21,11 / fast_pskip=0 / chroma_qp_offset=-3 / threads=6 / lookahead_threads=1 / sliced_threads=0 / nr=0 / decimate=1 / interlaced=0 / bluray_compat=0 / constrained_intra=0 / bframes=5 / b_pyramid=2 / b_adapt=2 / b_bias=0 / direct=3 / weightb=1 / open_gop=0 / weightp=2 / keyint=250 / keyint_min=23 / scenecut=40 / intra_refresh=0 / rc_lookahead=50 / rc=2pass / mbtree=1 / bitrate=4007 / ratetol=1.0 / qcomp=0.60 / qpmin=10 / qpmax=51 / qpstep=4 / cplxblur=20.0 / qblur=0.5 / ip_ratio=1.40 / aq=1:1.00

Audio
ID : 2
Format : AC-3
Format/Info : Audio Coding 3
Mode extension : CM (complete main)
Codec ID : A_AC3
Duration : 52mn 5s
Bit rate mode : Constant
Bit rate : 448 Kbps
Channel(s) : 6 channels
Channel positions : Front: L C R, Side: L R, LFE
Sampling rate : 48.0 KHz
Bit depth : 16 bits
Stream size : 167 MiB (10%)
Title : Dub
Language : Russian

Text
ID : 3
Format : UTF-8
Codec ID : S_TEXT/UTF8
Codec ID/Info : UTF-8 Plain Text
Language : Russian

Menu
00:00:00.000 : :Chapter 01
00:10:53.640 : :Chapter 02
00:21:27.680 : :Chapter 03
00:27:24.439 : :Chapter 04
00:39:51.760 : :Chapter 05
00:52:04.279 : :Chapter 06

Доп.инфо

Полная реставрация изображения, добавление новых материалов, которых нет в американском издании
Итальянское издание длиннее американского, из которого были взяты русские дороги, на итальянский текст есть субтитры.
За АП Сербина благодарность в адрес: ork2010, levanevski, vadiz, Viraha94, SwordFish123, Кириллка, Judo, Acoustic, Servrm, rico. Апокалипсис: Вторая мировая война

Аудио: Русский AC3 5.1, 48 kHz, 448 kbps
Субтитры: Русские (на непереведённые места)

Апокалипсис: Гитлер

Аудио: Русский AC3 5.1, 48 kHz, 640 kbps, английский DTS 5.1, 48 kHz, 1509 kbps

Список эпизодов

Апокалипсис: Вторая мировая война
1. Развязывание войны / Aggression (1933–1939)
2. Сокрушительное поражение / Crushing Defeat (1939–1940)
3. Мир в войне / Shock (1940–1941)
4. Коренной перелом / World Ablaze (1941–1942)
5. Крупнейшие десантные операции / The Great Landings/The Noose (1942–1943)
6. Конец кошмара / Inferno (1944–1945)

Апокалипсис: Гитлер
1. Угрозы / La menace
2. Фюрер / Le Fhrer
Скриншоты:




Смотреть Online

Детали торрента:
Название:Апокалипсис: Вторая мировая война; Гитлер / Apocalypse: The Second World War; Hitler (2009-2011) BDRip [H.264/720p] [Серии 1-8 из 8]
Дата добавления:19 Ноя 2014 23:57:15
Размер:15,1 GB
Раздают:4
Качают:2
Форум:Вторая Мировая война

All rights reserved © 2015-2019