TORRENTS45.XYZ

Скачать Пир любви / Daawat-e-Ishq (2014) BDRip [720p]


Пир любви / Daawat-e-Ishq (2014) BDRip
Год выпуска: 2014
Страна: Индия | Болливуд | Yash Raj Films Pvt. Ltd.
Жанр: Мелодрама, Драма, Комедия

Описание фильма:
Гулрез вечно не везёт с парнями, они то и дело придираются к её весьма незавидному финансовому положению. Не желая больше выносить унижений со стороны женихов, она решает, как следует их проучить и вытрясти с бедолаг всё, до последней копейки с помощью очень непростой статьи закона — 498А. В ней чёрным по белому написано, что требование приданого у невесты, строго преследуется по закону. Своей жертвой она выбирает простодушного повара по имени Тарих. Наивный парень даже и не подозревает, на какие испытания обречёт его любимая…

Режиссер: Хабиб Фейзал
Актеры: Адитья Рой Капур, Паринити Чопра, Анупам Кхер, Сумит Гадди, Каран Вахи...

Продолжительность: 01:58:23
Качество видео: BDRip 720p
Перевод: Многоголосый закадровый любительский - ICG
Автор перевода: Rummata
Язык субтитров: русский (песни / полные)
Вид субтитров: вшитые отключаемые



Дата мировой премьеры: 5 сентября 2014

Видеокодек: MPEG-4 AVC/H.264
Битрейт видео: ~4004 kbps
Размер кадра: 1280*544
Аудио 1: AC3 5.1 640 Kbps - русский
Аудио 2: DTS-HD MA 5.1 4342 kbps (DTS 48 kHz 1509 kbps 24-bit) - хинди

МедиаИнфо:

Код:
General
Unique ID                                : 246665550035903470531469163297096418233 (0xB9920E91691C215D9800AB997E4143B9)
Complete name                            :D:\\Pir.Lyubvi.2014.BDRip.720p.AVC.ICG.BwTorrents.mkv
Format                                   : Matroska
Format version                           : Version 4 / Version 2
File size                                : 5.09 GiB
Duration                                 : 1h 58mn
Overall bit rate                         : 6 153 Kbps
Movie name                               : BwTorrents_Daawat-e-Ishq.2014.ICG & GF
Encoded date                             : UTC 2014-11-16 01:38:20
Writing application                      : mkvmerge v7.3.0 ('Nouages') 64bit built on Oct 22 2014 18:53:34
Writing library                          : libebml v1.3.0 + libmatroska v1.4.1
_STATISTICS_WRITING_APP                  : mkvmerge v7.3.0 ('Nouages') 64bit built on Oct 22 2014 18:53:34
_STATISTICS_WRITING_DATE_UTC             : 2014-11-16 01:38:20
_STATISTICS_TAGS                         : BPS DURATION NUMBER_OF_FRAMES NUMBER_OF_BYTES
DURATION                                 : 01:57:41.936000000
NUMBER_OF_FRAMES                         : 1988
NUMBER_OF_BYTES                          : 115308

Video
ID                                       : 1
Format                                   : AVC
Format/Info                              : Advanced Video Codec
Format profile                           : High@L4.1
Format settings, CABAC                   : Yes
Format settings, ReFrames                : 9 frames
Codec ID                                 : V_MPEG4/ISO/AVC
Duration                                 : 1h 58mn
Bit rate                                 : 4 004 Kbps
Width                                    : 1 280 pixels
Height                                   : 544 pixels
Display aspect ratio                     : 2.35:1
Frame rate mode                          : Constant
Frame rate                               : 24.000 fps
Color space                              : YUV
Chroma subsampling                       : 4:2:0
Bit depth                                : 8 bits
Scan type                                : Progressive
Bits/(Pixel*Frame)                       : 0.240
Stream size                              : 3.21 GiB (63%)
Title                                    : Пир Любви_Daawat-e-Ishq.2014.ICG & GF
Writing library                          : x264 core 142 r2431 ac76440
Encoding settings                        : cabac=1 / ref=9 / deblock=1:-3:-3 / analyse=0x3:0x113 / me=umh / subme=11 / psy=1 / psy_rd=1.00:0.15 / mixed_ref=1 / me_range=24 / chroma_me=1 / trellis=2 / 8x8dct=1 / cqm=0 / deadzone=21,11 / fast_pskip=1 / chroma_qp_offset=-2 / threads=2 / lookahead_threads=1 / sliced_threads=0 / slices=2 / nr=0 / decimate=0 / interlaced=0 / bluray_compat=0 / constrained_intra=0 / bframes=7 / b_pyramid=2 / b_adapt=2 / b_bias=0 / direct=1 / weightb=1 / open_gop=0 / weightp=2 / keyint=240 / keyint_min=24 / scenecut=40 / intra_refresh=0 / rc_lookahead=50 / rc=2pass / mbtree=0 / bitrate=4004 / ratetol=1.0 / qcomp=0.50 / qpmin=0 / qpmax=69 / qpstep=4 / cplxblur=20.0 / qblur=0.5 / vbv_maxrate=50000 / vbv_bufsize=45000 / nal_hrd=none / filler=0 / ip_ratio=1.40 / pb_ratio=1.30 / aq=1:1.00
Language                                 : Hindi
Default                                  : Yes
Forced                                   : No

Audio #1
ID                                       : 2
Format                                   : AC-3
Format/Info                              : Audio Coding 3
Mode extension                           : CM (complete main)
Format settings, Endianness              : Big
Codec ID                                 : A_AC3
Duration                                 : 1h 58mn
Bit rate mode                            : Constant
Bit rate                                 : 640 Kbps
Channel(s)                               : 6 channels
Channel positions                        : Front: L C R, Side: L R, LFE
Sampling rate                            : 48.0 KHz
Bit depth                                : 16 bits
Compression mode                         : Lossy
Stream size                              : 542 MiB (10%)
Title                                    : Перевод: ICG 5.1 ch. 16-bits. ac3
Language                                 : Russian
Default                                  : Yes
Forced                                   : No

Audio #2
ID                                       : 3
Format                                   : DTS
Format/Info                              : Digital Theater Systems
Mode                                     : 16
Format settings, Endianness              : Big
Codec ID                                 : A_DTS
Duration                                 : 1h 58mn
Bit rate mode                            : Constant
Bit rate                                 : 1 509 Kbps
Channel(s)                               : 6 channels
Channel positions                        : Front: L C R, Side: L R, LFE
Sampling rate                            : 48.0 KHz
Bit depth                                : 24 bits
Compression mode                         : Lossy
Stream size                              : 1.25 GiB (25%)
Title                                    : Original | DTS 5.1 / 48 kHz / 1509 kbps / 24-bit
Language                                 : Hindi
Default                                  : No
Forced                                   : No

Text #1
ID                                       : 4
Format                                   : UTF-8
Codec ID                                 : S_TEXT/UTF8
Codec ID/Info                            : UTF-8 Plain Text
Title                                    : Перевод: Rummata - песни
Language                                 : Russian
Default                                  : Yes
Forced                                   : Yes

Text #2
ID                                       : 5
Format                                   : UTF-8
Codec ID                                 : S_TEXT/UTF8
Codec ID/Info                            : UTF-8 Plain Text
Title                                    : Перевод: Rummata - полные
Language                                 : Russian
Default                                  : No
Forced                                   : No

Menu
00:00:00.000                             : en:00:00:00.000
00:02:54.000                             : en:00:02:54.000
00:07:42.333                             : en:00:07:42.333
00:13:23.167                             : en:00:13:23.167
00:16:59.625                             : en:00:16:59.625
00:19:24.583                             : en:00:19:24.583
00:27:06.958                             : en:00:27:06.958
00:34:29.917                             : en:00:34:29.917
00:41:44.208                             : en:00:41:44.208
00:46:06.750                             : en:00:46:06.750
00:57:36.000                             : en:00:57:36.000
01:02:21.625                             : en:01:02:21.625
01:08:25.625                             : en:01:08:25.625
01:14:09.625                             : en:01:14:09.625
01:20:23.500                             : en:01:20:23.500
01:25:30.167                             : en:01:25:30.167
01:29:01.625                             : en:01:29:01.625
01:31:01.375                             : en:01:31:01.375
01:36:39.708                             : en:01:36:39.708
01:38:00.625                             : en:01:38:00.625
01:42:27.625                             : en:01:42:27.625
01:45:24.250                             : en:01:45:24.250
01:54:13.458                             : en:01:54:13.458
Скриншоты:



Смотреть Online

http://moonwalk.cc/video/8117d3dad0af8815/iframe
Детали торрента:
Название:Пир любви / Daawat-e-Ishq (2014) BDRip [720p]
Дата добавления:16 Ноя 2014 14:41:34
Размер:5,09 GB
Раздают:1
Качают:0
Форум:Индийское кино

All rights reserved © 2015-2018