TORRENTS45.XYZ

Скачать Специалист | Курс М6236 (М2793) Внедрение и поддержка сервисов отчетов Microsoft SQL Server 2008 R2/2005 (2011) PCRec


Специалист | Курс М6236 (М2793) Внедрение и поддержка сервисов отчетов Microsoft SQL Server 2008 R2/2005 (2011) PCRec
Автор (режиссер): Специалист
Преподаватель: Федор Анатольевич Самородов
Жанр: Обучающие видео-уроки
Продолжительность: 12:45:47
Качество видео: PCRec
Видеокодек: G2M4
Битрейт видео: ~109 - 27,6 kb/s
Размер кадра: 1024x768
Аудиокодек: WMA
Битрейт аудио: 48 kb/s, 1 Ch

Описание:
Цель курса:
Освоение функций и возможностей Microsoft SQL Server 2008 R2, предназначенных для реализации и поддержки сервисов отчётов.

По окончании курса Вы будете уметь:
Описывать службы отчётов SQL Server 2008 R2, а также их задачи и компоненты
Создавать отчёты
Добавлять в отчёты дополнительную функциональность
Управлять наборами данных
Создавать модели отчётов и строить на их базе отчёты
Настраивать публикацию отчётов
Реализовывать подписку на отчёты
Администрировать службы отчётов
Создавать приложения на базе служб отчётов

Программа курса:

Модуль 1. Обзор SQL Server 2008 R2 Reporting Services

Обзор SQL Server 2008 R2 Reporting Services
Установка служб отчётов
Инструментарий служб отчётов
Использование Report Manager
Использование Report Designer

Модуль 2. Создание простых отчётов

Виды отчётов, поддерживаемые Reporting Services
Создание простого табличного отчёта
Форматирование и оформление страниц отчёта
Вычисление значений в отчёте

Модуль 3. Усовершенствование простого отчёта

Интерактивная навигация
Сокрытие и отображение полей, строк и блоков отчёта
Построение многоуровнего оглавления
Использование внутренних и внешних переходов
Отображение данных
Матричные и графические отчёты
Работа с планировкой Tablix

Модуль 4. Управление наборами данных

Определение исходных данных для отчёта
Использование параметров и фильтров
Фильтрация на уровне наборов данных
Фильтрация внутри отчёта
Использование параметризованных хранимых процедур
Использование списков параметров
Создание динамических списков параметров

Модуль 5. Использование моделей отчётов

Создание моделей отчётов
Использование реляционных и многомерных источников
Использование инструмента Report Builder
Построение отчётов на основе модели

Модуль 6. Публикация и выполнение отчётов

Публикация отчётов
Выполнение отчётов
Создание кэшированных экземпляров
Создание мгновенных снимков и истории отчёта
Выбор стратегии кэширования отчётов

Модуль 7. Использование подписок для распространения отчётов

Введение в подписки на отчёты
Создание подписок
Подписки по требованию (standard subscription)
Условная генерация и рассылка отчётов (data-driven subscription)
Генерация и рассылка отчётов по событиям (event-driven subscription)
Управление подписками

Модуль 8. Администрирование Reporting Services

Администрирование сервера
Мониторинг производительности и надёжности
Администрирование баз данных Reporting Services
Настройка безопасности
Ограничение административного доступа
Ограничение доступа к отчётам
Использование ролей для разграничения доступа
Модернизация Reporting Services до 2008-й версии

Модуль 9. Программирование в Reporting Services

Получение сведений при помощи Web-сервисов
Автоматизация управления отчётами
Мониторинг выполнения пакета
Построение отчёта
Добавление собственного программного кода
Выбор стратегии интеграции Reporting Services
Интеграция при помощи URL-доступа
Интеграция при помощи компонента Report Viewer
Сложные сценарии интеграции Reporting Services

MediaInfo:

Код:
Общее
Полное имя                               : C:\[Специалист] М6236 (М2793) Внедрение и поддержка сервисов отчетов Microsoft SQL Server 2008 R2 - 2011\m6236_30.08.11_3.avi
Формат                                   : Windows Media
Размер файла                             : 210 Мбайт
Продолжительность                        : 3 ч. 3 м.
Режим общего битрейта                    : Переменный
Общий поток                              : 160 Кбит/сек
Максимальный общий битрейт               : 290 Кбит/сек
Дата кодирования                         : UTC 2011-08-31 06:29:01.150
Программа кодирования                    :  4.8 Build 723 / GoToMeeting
BitRateFrom the writer                   : 157197
Audio samples                            : 108812
Video samples                            : 49532
recording time                           : Ср, 31 авг 2011 16:43:25 Russian Daylight Time

Видео
Идентификатор                            : 3
Формат                                   : G2M4
Идентификатор кодека                     : G2M4
Вид битрейта                             : Переменный
Битрейт                                  : 109 Кбит/сек
Ширина                                   : 1024 пикселя
Высота                                   : 768 пикселей
Соотношение сторон                       : 4:3
Режим частоты кадров                     : Переменный
Номинальная частота кадров               : 29,970 кадров/сек
Битовая глубина                          : 8 бит
Язык                                     : Russian (RU)

Аудио
Идентификатор                            : 1
Формат                                   : WMA
Версия формата                           : Version 2
Идентификатор кодека                     : 161
Идентификатор кодека/Информация          : Windows Media Audio
Описание кодека                          : Windows Media Audio 9 -  48 kbps, 44 kHz, mono 1-pass CBR
Продолжительность                        : 3 ч. 3 м.
Вид битрейта                             : Постоянный
Битрейт                                  : 48,0 Кбит/сек
Каналы                                   : 1 канал
Частота                                  : 44,1 КГц
Битовая глубина                          : 16 бит
Размер потока                            : 63,0 Мбайт (30%)
Язык                                     : Russian


Код:
Общее
Полное имя                               : C:\[Специалист] М6236 (М2793) Внедрение и поддержка сервисов отчетов Microsoft SQL Server 2008 R2 - 2011\m6236_30.08.11_2.avi
Формат                                   : Windows Media
Размер файла                             : 286 Мбайт
Продолжительность                        : 3 ч. 57 м.
Режим общего битрейта                    : Переменный
Общий поток                              : 168 Кбит/сек
Максимальный общий битрейт               : 27,9 Мбит/сек
Дата кодирования                         : UTC 2012-01-27 06:39:17.855

Видео
Идентификатор                            : 3
Формат                                   : G2M4
Идентификатор кодека                     : G2M4
Вид битрейта                             : Переменный
Битрейт                                  : 27,6 Мбит/сек
Ширина                                   : 1024 пикселя
Высота                                   : 768 пикселей
Соотношение сторон                       : 4:3
Режим частоты кадров                     : Переменный
Номинальная частота кадров               : 29,970 кадров/сек
Битовая глубина                          : 8 бит

Аудио
Идентификатор                            : 1
Формат                                   : WMA
Версия формата                           : Version 2
Идентификатор кодека                     : 161
Идентификатор кодека/Информация          : Windows Media Audio
Описание кодека                          : Windows Media Audio V7
Продолжительность                        : 3 ч. 57 м.
Вид битрейта                             : Постоянный
Битрейт                                  : 48,0 Кбит/сек
Каналы                                   : 1 канал
Частота                                  : 44,1 КГц
Битовая глубина                          : 16 бит
Размер потока                            : 81,5 Мбайт (29%)
Скриншоты:


Специалист | Курс М6235 (М2792) Внедрение и поддержка сервисов интеграции Microsoft SQL Server 2008 R2/2005 (2011) PCRec

Детали торрента:
Название:Специалист | Курс М6236 (М2793) Внедрение и поддержка сервисов отчетов Microsoft SQL Server 2008 R2/2005 (2011) PCRec
Дата добавления:06 Дек 2014 19:40:01
Размер:940 MB
Раздают:12
Качают:0
Форум:Компьютеры

All rights reserved © 2015-2019