TORRENTS45.XYZ

Скачать Discovery. Махинаторы (Автодилеры) / Wheeler Dealers. Jaguar XJ-C (2014) HDTVRip [XviD/720i-LQ] [PR] (Сезон 11, серия 9)


Discovery. Махинаторы (Автодилеры) / Wheeler Dealers. Jaguar XJ-C (2014) HDTVRip [720i] (Сезон 11, серия 9)
Производство: Великобритания, Attaboy TV LTD for Discovery Channel
Жанр: Документальный, научно-познавательный, автомобилестроение

Режиссер: Уоррен Грин
Участники: Майк Брюэр, Эдд Чайна

Описание:
Суть передачи такова: ведущий покупает старенькую машину-автоклассику за небольшие деньги и передает ее механику-профессионалу, чтобы тот, в свою очередь, восстановил ее до приличного состояния, уложившись при этом в определенный бюджет. Далее ведущий попытается продать авто, за сумму перекрывающую расходы на ее покупку и ремонт, и постарается остаться даже в небольшой прибыли от подобного рода "махинации", а как это у них получится, смотрите сами...

В выпуске: Jaguar XJ-C



Продолжительность: 00:44:00
Качество видео: HDTVRip
Перевод: Одноголосый закадровый, профессиональный
Субтитры: отсутствуют

Видеокодек: XviD
Битрейт видео: ~9341 Кбит/с
Размер кадра: 1280x720 (16:9)
Аудио:
1: AC-3, 6 ch, 48,0 КГц 384 Кбит/сек (русский)
2: AC-3, 6 ch, 48,0 КГц 384 Кбит/сек (english)

MediaInfo

Код: выделить все
Общее
Полное имя                               : Махинаторы. Jaguar XJ-C. S11E09.avi
Формат                                   : AVI
Формат/Информация                        : Audio Video Interleave
Профиль формата                          : OpenDML
Размер файла                             : 3,11 Гбайт
Продолжительность                        : 44 м.
Общий поток                              : 10,1 Мбит/сек
Программа кодирования                    : XviD4PSP 6.0 / 54.27.101

Видео
Идентификатор                            : 0
Формат                                   : MPEG-4 Visual
Профиль формата                          : Advanced Simple@L5
Параметр BVOP формата                    : 2
Параметр QPel формата                    : Нет
Параметр GMC формата                     : Без точки перехода
Параметр матрицы формата                 : Default (H.263)
Идентификатор кодека                     : XVID
Идентификатор кодека/Подсказка           : XviD
Продолжительность                        : 43 м.
Битрейт                                  : 9341 Кбит/сек
Ширина                                   : 1280 пикселей
Высота                                   : 720 пикселей
Соотношение сторон                       : 16:9
Частота кадров                           : 25,000 кадров/сек
Цветовое пространство                    : YUV
Субдискретизация насыщенности            : 4:2:0
Битовая глубина                          : 8 бит
Тип развёртки                            : Чересстрочная
Порядок развёртки                        : Верхнее поле первое
Метод сжатия                             : С потерями
Бит/(Пиксели*Кадры)                      : 0.405
Размер потока                            : 2,87 Гбайт (92%)
Библиотека кодирования                   : XviD 64

Аудио #1
Идентификатор                            : 1
Формат                                   : AC-3
Формат/Информация                        : Audio Coding 3
Расширение режима                        : CM (complete main)
Параметр Endianness формата              : Big
Идентификатор кодека                     : 2000
Продолжительность                        : 44 м.
Вид битрейта                             : Постоянный
Битрейт                                  : 384 Кбит/сек
Каналы                                   : 6 каналов
Расположение каналов                     : Front: L C R, Side: L R, LFE
Частота                                  : 48,0 КГц
Битовая глубина                          : 16 бит
Метод сжатия                             : С потерями
Размер потока                            : 121 Мбайт (4%)
Выравнивание                             : Соединение по промежуткам
Продолжительность промежутка             : 32  мс. (0,80 видеокадр)

Аудио #2
Идентификатор                            : 2
Формат                                   : AC-3
Формат/Информация                        : Audio Coding 3
Расширение режима                        : CM (complete main)
Параметр Endianness формата              : Big
Идентификатор кодека                     : 2000
Продолжительность                        : 44 м.
Вид битрейта                             : Постоянный
Битрейт                                  : 384 Кбит/сек
Каналы                                   : 6 каналов
Расположение каналов                     : Front: L C R, Side: L R, LFE
Частота                                  : 48,0 КГц
Битовая глубина                          : 16 бит
Метод сжатия                             : С потерями
Размер потока                            : 121 Мбайт (4%)
Выравнивание                             : Соединение по промежуткам
Продолжительность промежутка             : 32  мс. (0,80 видеокадр)
Скриншоты:


«Махинаторы» на NoName Club

Смотреть Online

http://moonwalk.cc/serial/09c61e0bc1950da790c1d977e2ba06ed/iframe
Детали торрента:
Название:Discovery. Махинаторы (Автодилеры) / Wheeler Dealers. Jaguar XJ-C (2014) HDTVRip [XviD/720i-LQ] [PR] (Сезон 11, серия 9)
Дата добавления:08 Ноя 2014 21:11:49
Размер:3,11 GB
Раздают:1
Качают:0
Форум:За рулем

All rights reserved © 2015-2018