TORRENTS45.XYZ

Скачать Отель "У погибшего альпиниста" (1979) DVDRip [H.264]


Отель "У погибшего альпиниста" (1979) DVDRip
Русское название: Отель "У погибшего альпиниста"
Год выпуска: 1979
Жанр: Фантастика, детектив

Перевод: Профессиональный (дублированный) Ленфильм
Субтитры: Русские, английские (отключаемые)

Описание фильма: Фильм «Отель „У погибшего альпиниста“» снят по сценарию самих братьев Стругацких по одноименному роману 1969 года.По срочному вызову в отель "У погибшего альпиниста" приезжает инспектор Глебски. Немногочисленные постояльцы напуганы до смерти. Однако Глебски не обнаруживает никакого состава преступления. Снежная лавина отрезает ему путь в город. Инспектор остается в отеле и окaзывaeтcя в caмом цeнтpe шокирующих cобытий. Вскоре в одном из номеров он обнаруживает труп. Занимаясь поисками убийцы, инспектор постепенно откpывaeт для себя ужacныe тaйны, котоpыe хpaнит отeль…
Фильм-загадка, фильм-сфинкс, фильм-вызов. Удивительная фантастико-мистическая атмосфера, затягивающая в таинственный мир. Гениальная операторская работа. Мощный и интересный саундтрек известного эстонского композитора Свена Грюнберга. По воздействию этот суперпопулярный в конце 1970-х гг. фильм можно сравнить с романами писателя-фантаста Филиппа Дика.

Режиссер: Григорий Кроманов
Актеры: Улдис Пуцитис, Юри Ярвет, Лембит Петерсон, Микк Микивер, Карлис Себрис, Ирена Кридузайте, Сулев Луйк, Тийт Хярм, Ниоле Ожелите, Тим Рид

Продолжительность: 01:20:19



Формат: MKV
Видеокодек: MPEG4 Video (H264)
Битрейт видео: ~1794kbps
Размер кадра: 720x576@768x576
Качество видео: DVDRip
Аудио 1: AC3 Dolby Digital, 5/1 (L,C,R,l,r) + LFE ch, ~448.00 kbps (Русский)
Аудио 2: AC3 Dolby Digital, 2/0 (L,R) ch, ~192.00 kbps (Эстонский)

MI

Общее
Уникальный идентификатор : 215954798606211606745305730560084168152 (0xA277619EA523D811AB2B297A9A904DD8)
Полное имя : D:\Релизы\У погибшего альпиниста.mkv
Формат : Matroska
Версия формата : Version 2
Размер файла : 1,37 Гбайт
Продолжительность : 1 ч. 20 м.
Общий поток : 2436 Кбит/сек
Дата кодирования : UTC 2011-02-26 22:30:33
Программа кодирования : mkvmerge v4.4.0 ('Die Wiederkehr') built on Oct 31 2010 21:52:48
Библиотека кодирования : libebml v1.0.0 + libmatroska v1.0.0

Видео
Идентификатор : 1
Формат : AVC
Формат/Информация : Advanced Video Codec
Профиль формата : High@L4.1
Параметр CABAC формата : Да
Параметр ReFrames формата : 4 кадра
Идентификатор кодека : V_MPEG4/ISO/AVC
Продолжительность : 1 ч. 20 м.
Битрейт : 1794 Кбит/сек
Ширина : 720 пикселей
Высота : 576 пикселей
Соотношение сторон : 4:3
Частота кадров : 25,000 кадров/сек
Стандарт вещания : PAL
Цветовое пространство : YUV
Субдискретизация насыщенности : 4:2:0
Битовая глубина : 8 бит
Тип развёртки : Прогрессивная
Бит/(Пиксели*Кадры) : 0.173
Размер потока : 1004 Мбайт (72%)
Библиотека кодирования : x264 core 112 r1867 22bfd31
Настройки программы : cabac=1 / ref=4 / deblock=1:-1:-1 / analyse=0x3:0x113 / me=umh / subme=7 / psy=1 / psy_rd=1.00:0.00 / mixed_ref=1 / me_range=16 / chroma_me=1 / trellis=2 / 8x8dct=1 / cqm=0 / deadzone=21,11 / fast_pskip=1 / chroma_qp_offset=-2 / threads=6 / sliced_threads=0 / nr=0 / decimate=1 / interlaced=0 / constrained_intra=0 / bframes=3 / b_pyramid=0 / b_adapt=2 / b_bias=0 / direct=3 / weightb=1 / open_gop=0 / weightp=2 / keyint=250 / keyint_min=25 / scenecut=40 / intra_refresh=0 / rc_lookahead=40 / rc=2pass / mbtree=1 / bitrate=1794 / ratetol=1.0 / qcomp=0.60 / qpmin=10 / qpmax=51 / qpstep=4 / cplxblur=20.0 / qblur=0.5 / vbv_maxrate=50000 / vbv_bufsize=50000 / nal_hrd=none / ip_ratio=1.40 / aq=1:1.00
Язык : English
Default : Да
Forced : Нет

Аудио #1
Идентификатор : 2
Формат : AC-3
Формат/Информация : Audio Coding 3
Расширение режима : CM (complete main)
Идентификатор кодека : A_AC3
Продолжительность : 1 ч. 20 м.
Вид битрейта : Постоянный
Битрейт : 448 Кбит/сек
Каналы : 6 каналов
Расположение каналов : Front: L C R, Side: L R, LFE
Частота : 48,0 КГц
Битовая глубина : 16 бит
Метод сжатия : С потерями
Размер потока : 257 Мбайт (18%)
Язык : Russian
Default : Да
Forced : Нет

Аудио #2
Идентификатор : 3
Формат : AC-3
Формат/Информация : Audio Coding 3
Расширение режима : CM (complete main)
Идентификатор кодека : A_AC3
Продолжительность : 1 ч. 20 м.
Вид битрейта : Постоянный
Битрейт : 192 Кбит/сек
Каналы : 2 канала
Расположение каналов : Front: L R
Частота : 48,0 КГц
Битовая глубина : 16 бит
Метод сжатия : С потерями
Размер потока : 110 Мбайт (8%)
Язык : Estonian
Default : Нет
Forced : Нет

Текст #1
Идентификатор : 4
Формат : UTF-8
Идентификатор кодека : S_TEXT/UTF8
Идентификатор кодека/Информация : UTF-8 Plain Text
Язык : Russian
Default : Да
Forced : Нет

Текст #2
Идентификатор : 5
Формат : UTF-8
Идентификатор кодека : S_TEXT/UTF8
Идентификатор кодека/Информация : UTF-8 Plain Text
Язык : English
Default : Нет
Forced : Нет

Доп. информация:

Фильм «Отель „У погибшего альпиниста“» снят по сценарию самих братьев Стругацких по одноименному роману 1969 года. В картине звучит электронная музыка эстонского композитора Свена Грюнберга. Лента снята на киностудии «Таллинфильм» режиссёром Григорием Кромановым и оператором Юри Силлартом с участием эстонских, латышских и литовских актёров. Художником по костюмам являлся московский модельер Вячеслав Зайцев. Оригинальный язык фильма — эстонский. По признанию многих критиков и зрителей[источник не указан 646 дней], при отсутствии в картине каких-то дорогих спецэффектов оператором Юри Силлартом и художником-постановщиком Тыну Вирве была сделана поистине великолепная операторская работа, создавшая особый колорит и мощную таинственную атмосферу происходящего, заменившую собой все cпецэффекты. Фильм почти полностью снят на крупных и средних планах, плюс пейзажные съёмки, сделанные недалеко от горнолыжного курорта «Чимбулак» в местечке «Ворота Туюк-Су» в горах Заилийского Алатау над Алма-Атой (Казахстан).

Картина «Отель „У погибшего альпиниста“» в 1979-ом году получила престижный Приз «Серебряный астероид» (2-ое место) на ежегодном Международном кинофестивале фантастического кино в г. Триесте (Италия).
Скриншоты:

Смотреть Online

Детали торрента:
Название:Отель "У погибшего альпиниста" (1979) DVDRip [H.264]
Дата добавления:21 Окт 2014 11:34:37
Размер:1,37 GB
Раздают:1
Качают:0
Форум:Отечественная Классика (HD*Rip/LQ, DVDRip, SATRip, VHSRip)

All rights reserved © 2015-2019