TORRENTS45.XYZ

Скачать Политика. Захват аэропорта Донецка (2014.10.08) SATRip


Политика. Захват аэропорта Донецка (2014.10.08) SATRip
Режиссер / Телекомпания: Первый канал

Русское название: Политика
Год выпуска: 2014
Жанр: Телепередача
Выпущено: Россия

Описание:
Еженедельное общественно-политическое ток-шоу с Петром Толстым - в прямом эфире и на самую актуальную и интересную тему недели - задумано как «пьеса- конфликт» про политику в трех частях. Разговоры о политике в России вновь становятся актуальными. Каждый четверг вечером на Первом канале представители власти, оппозиционеры, депутаты и приглашенные эксперты спорят о самом главном: как будет дальше жить страна. Политические страсти и принципиальные разногласия в обществе сегодня заставляют нас снова вернуться к политике, как к искусству возможного и невозможного. Время, когда ею не принято было интересоваться прошло. Происходят события, о которых необходимо разговаривать для того, чтобы понять, как нам жить дальше.
Приглашенные гости – политики, эксперты, представители интеллигенции – представляют две полярные точки зрения. Цель спора в студии - детально разобраться в проблеме, услышать мнения обеих сторон и предложить зрителям максимально полную и новую информацию непосредственно от участников событий. Комментарии происходящего со стороны политологов, писателей, деятелей культуры и блогеров дают возможность сравнить ваше видение ситуации с мнениями других. Политическая позиция и рефлексия по поводу темы спора – все это сходится в итоге в заключительной части программы.
Ведущий Петр Толстой говорит, что собирается делать программу серьезную, но не без иронии. На вопрос, чем его ток-шоу будет отличаться от остальных программ про политику, Толстой отвечает: «Перефразируя Льва Толстого, все ток-шоу удачны одинаково, но функционируют по-своему. Мне хочется бодрой, веселой дискуссии, а не унылого переживания по поводу чужих налоговых деклараций. Программы, в которой к политике относились бы со здоровым чувством юмора. Но многое будет зависеть, конечно, и от гостей - участников спора».

Продолжительность: 01:01:01

Видеокодек: XVID
Качество видео: SATRip
Битрейт видео: ~1800 kb/s
Размер кадра: 704 x 448
Аудиокодек: AC-3, 2.0ch.
Битрейт аудио: 192 kb/s

MediaInfo:

Формат : AVI
Формат/Информация : Audio Video Interleave
Размер файла : 874 Мбайт
Продолжительность : 1 ч. 1 м.
Общий поток : 2002 Кбит/сек
Программа кодирования : VirtualDubMod 1.5.10.3 | www.virtualdub-fr.org || (build 2550/release)
Библиотека кодирования : VirtualDubMod build 2550/release

Видео
Идентификатор : 0
Формат : MPEG-4 Visual
Профиль формата : Advanced Simple@L5
Параметр BVOP формата : 2
Параметр QPel формата : Нет
Параметр GMC формата : Без точки перехода
Параметр матрицы формата : Default (H.263)
Идентификатор кодека : XVID
Идентификатор кодека/Подсказка : XviD
Продолжительность : 1 ч. 1 м.
Битрейт : 1800 Кбит/сек
Ширина : 704 пикселя
Высота : 448 пикселей
Соотношение сторон : 1,571
Частота кадров : 25,000 кадров/сек
Цветовое пространство : YUV
Субдискретизация насыщенности : 4:2:0
Битовая глубина : 8 бит
Тип развёртки : Прогрессивная
Метод сжатия : С потерями
Бит/(Пиксели*Кадры) : 0.228
Размер потока : 786 Мбайт (90%)
Библиотека кодирования : XviD 1.2.1 (UTC 2008-12-04)

Аудио
Идентификатор : 1
Формат : AC-3
Формат/Информация : Audio Coding 3
Расширение режима : CM (complete main)
Идентификатор кодека : 2000
Продолжительность : 1 ч. 1 м.
Вид битрейта : Постоянный
Битрейт : 192 Кбит/сек
Каналы : 2 канала
Расположение каналов : Front: L R
Частота : 48,0 КГц
Битовая глубина : 16 бит
Метод сжатия : С потерями
Размер потока : 83,8 Мбайт (10%)
Выравнивание : Разделение по промежуткам
Продолжительность промежутка : 40 мс. (1,00 видеокадр)
Время предзагрузки промежутка : 500 мс.
Скриншоты:
Детали торрента:
Название:Политика. Захват аэропорта Донецка (2014.10.08) SATRip
Дата добавления:08 Окт 2014 20:49:24
Размер:874 MB
Раздают:
Качают:0
Форум:Публицистика, политика и экономика

All rights reserved © 2015-2018