TORRENTS45.XYZ

Скачать С чего начинается Родина (2014) HDTVRip [H.264/720p-LQ] (серии 1-8 из 8)


С чего начинается Родина (2014) HDTVRip [H.264/720p-LQ] (серии 1-8 из 8)
Жанр: Детектив
Производство: Россия / Всемирные Русские Студии

Режиссер: Рауф Кубаев
Актеры: Евгений Цыганов, Валерий Баринов, Вадим Андреев, Александр Тютин, Виктор Балабанов, Александр Ермаков, Георгий Тараторкин, Елена Сафонова, Юлия Снигирь, Михаил Гаврилов (II), Эрик Холявко-Гришин, Александр Робак, Юлия Ауг, Полина Ауг, Елена Шевченко, Дмитрий Муляр, Виктор Бивайн, Виктория Романенко, Арнас Федаравичус, Александр Трошин, Андрис Лиелайс

Описание:
Конец 1980-х. Закат советской эпохи. Ветер перемен сметал на своем пути всех и вся. Пользуясь нестабильностью обстановки в советском государстве, ЦРУ объявило награду тому, кто раскроет имена действующих резидентов СССР в западных странах. Предателю пообещали миллион долларов и политическое убежище за границей. Первое и Второе управления КГБ (разведка и контрразведка) были всерьез обеспокоены тем, что может найтись немало желающих заполучить эти деньги. В КГБ решили подсунуть американцам подставного изменника Родины, выбрав безупречного кандидата среди своих же сотрудников. Операция «Фантом» началась… Никто из участников событий не мог предположить, что разработанная в КГБ операция принесет свои плоды несколько десятилетий спустя, когда сотрудник американской разведки Джеймс Сноу сообщит всему миру, что спецслужбы США нелегально контролируют личную переписку и телефонные переговоры миллионов людей.


Дата российской премьеры: 29.09.2014

Rip by Nikolspup от
Огромная благодарность Media-Art-Club за созданный постер к раздаче

Качество: HDTVRip 720p
Продолжительность: ~ 00:52:00 серия
Перевод: Не требуется

Видео: AVC/H.264, 1280x720 (16:9), 25.000 fps, 3912 Kbps (0.170 bit/pixel)
Аудио: AC3, 48.0 KHz, 2 ch, 192 Kbps, CBR

Отчет MediaInfo:


General
Complete name : F:\Сериал\раздача\S.chego.nachinaetsya.Rodina.2014.HDTVRip.720p\S.chego.nachinaetsya.Rodina.(01.seriya.iz.08).2014.HDTVRip.(720p).MediaClub.mkv
Format : Matroska
File size : 1.56 GiB
Duration : 54mn 15s
Overall bit rate : 4 107 Kbps
Encoded date : UTC 2014-09-29 21:07:05
Writing application : mkvmerge v6.1.0 ('Old Devil') built on Mar 4 2013 09:10:42
Writing library : libebml v1.3.0 + libmatroska v1.4.0

Video
ID : 1
Format : AVC
Format/Info : Advanced Video Codec
Format profile : High@L4.1
Format settings, CABAC : Yes
Format settings, ReFrames : 8 frames
Muxing mode : Container profile=Unknown@4.1
Codec ID : V_MPEG4/ISO/AVC
Duration : 54mn 15s
Bit rate : 3 912 Kbps
Width : 1 280 pixels
Height : 720 pixels
Display aspect ratio : 16:9
Frame rate : 25.000 fps
Color space : YUV
Chroma subsampling : 4:2:0
Bit depth : 8 bits
Scan type : Progressive
Bits/(Pixel*Frame) : 0.170
Stream size : 1.45 GiB (93%)
Writing library : x264 core 130 r2273 b3065e6
Encoding settings : cabac=1 / ref=8 / deblock=1:-3:-3 / analyse=0x3:0x133 / me=umh / subme=11 / psy=1 / psy_rd=1.00:0.20 / mixed_ref=1 / me_range=32 / chroma_me=1 / trellis=2 / 8x8dct=1 / cqm=0 / deadzone=21,11 / fast_pskip=0 / chroma_qp_offset=-3 / threads=12 / lookahead_threads=3 / sliced_threads=0 / nr=0 / decimate=0 / interlaced=0 / bluray_compat=0 / constrained_intra=0 / bframes=11 / b_pyramid=2 / b_adapt=2 / b_bias=0 / direct=3 / weightb=1 / open_gop=0 / weightp=2 / keyint=250 / keyint_min=25 / scenecut=40 / intra_refresh=0 / rc=2pass / mbtree=0 / bitrate=3912 / ratetol=1.0 / qcomp=0.60 / qpmin=0 / qpmax=69 / qpstep=4 / cplxblur=20.0 / qblur=0.5 / ip_ratio=1.40 / pb_ratio=1.30 / aq=1:0.80

Audio
ID : 2
Format : AC-3
Format/Info : Audio Coding 3
Mode extension : CM (complete main)
Codec ID : A_AC3
Duration : 54mn 15s
Bit rate mode : Constant
Bit rate : 192 Kbps
Channel(s) : 2 channels
Channel positions : Front: L R
Sampling rate : 48.0 KHz
Bit depth : 16 bits
Stream size : 74.5 MiB (5%)
Скриншоты:

Дополнительные скриншоты:



Сериал "С чего начинается Родина " на трекере Torrents45.xyz

Смотреть Online

http://moonwalk.cc/serial/959e3398a674ea8a8eb0166f297d66a7/iframe
Детали торрента:
Название:С чего начинается Родина (2014) HDTVRip [H.264/720p-LQ] (серии 1-8 из 8)
Дата добавления:04 Окт 2014 13:59:08
Размер:12,4 GB
Раздают:3
Качают:0
Форум:Отечественные сериалы

All rights reserved © 2015-2018