TORRENTS45.XYZ

Скачать Kill Devil Hill - Revolution Rise (2013) [FLAC|Lossless]<Heavy Metal, Hard Rock>


Kill Devil Hill - Revolution Rise (2013)
Год: 2013
Жанр: Hard Rock, Heavy Metal
Продолжительность: 00:55:52
Кодек: FLAC
Тип рипа: image+.cue
Битрейт: Lossless
Треклист:
01. No Way Out (Feat. Zakk Wylde)
02. Crown Of Thorns
03. Leave It All Behind
04. Why
05. Wake Up The Dead
06. Long Way From Home
07. Where Angels Dare To Roam
08. Stained Glass Sadness
09. Endless Static
10. Stealing Days
11. Life Goes On

Kill Devil Hill - Revolution Rise

Отчёт ЕАС:

Код:

Exact Audio Copy V1.0 beta 3 from 29. August 2011

EAC extraction logfile from 22. August 2014, 9:07

Kill Devil Hill / Revolution Rise

Used drive  : HL-DT-STDVD-RAM GH10L   Adapter: 0  ID: 1

Read mode               : Secure
Utilize accurate stream : Yes
Defeat audio cache      : Yes
Make use of C2 pointers : No

Read offset correction                      : 667
Overread into Lead-In and Lead-Out          : No
Fill up missing offset samples with silence : Yes
Delete leading and trailing silent blocks   : No
Null samples used in CRC calculations       : Yes
Used interface                              : Native Win32 interface for Win NT & 2000

Used output format : Internal WAV Routines
Sample format      : 44.100 Hz; 16 Bit; Stereo

TOC of the extracted CD

     Track |   Start  |  Length  | Start sector | End sector
    ---------------------------------------------------------
        1  |  0:00.00 |  4:01.18 |         0    |    18092
        2  |  4:01.18 |  4:39.26 |     18093    |    39043
        3  |  8:40.44 |  4:41.11 |     39044    |    60129
        4  | 13:21.55 |  3:30.63 |     60130    |    75942
        5  | 16:52.43 |  5:22.54 |     75943    |   100146
        6  | 22:15.22 |  5:34.21 |    100147    |   125217
        7  | 27:49.43 |  5:04.72 |    125218    |   148089
        8  | 32:54.40 |  4:43.23 |    148090    |   169337
        9  | 37:37.63 |  4:01.54 |    169338    |   187466
       10  | 41:39.42 |  4:20.06 |    187467    |   206972
       11  | 45:59.48 |  9:53.19 |    206973    |   251466

Range status and errors

Selected range

     Filename D:\Temp\Kill Devil Hill - Revolution Rise.wav

     Peak level 99.5 %
     Extraction speed 6.0 X
     Range quality 99.9 %
     Test CRC DCBF4830
     Copy CRC DCBF4830
     Copy OK

No errors occurred

AccurateRip summary

Track  1  accurately ripped (confidence 3)  [C5C9AEE8]  (AR v2)
Track  2  accurately ripped (confidence 3)  [BEC4B0E8]  (AR v2)
Track  3  accurately ripped (confidence 3)  [D68A8556]  (AR v2)
Track  4  accurately ripped (confidence 3)  [32F7BF31]  (AR v2)
Track  5  accurately ripped (confidence 3)  [614783BB]  (AR v2)
Track  6  accurately ripped (confidence 3)  [67A66B30]  (AR v2)
Track  7  accurately ripped (confidence 3)  [A55AD305]  (AR v2)
Track  8  accurately ripped (confidence 3)  [04780A5F]  (AR v2)
Track  9  accurately ripped (confidence 3)  [AD81F57E]  (AR v2)
Track 10  accurately ripped (confidence 3)  [9FE7C9CE]  (AR v2)
Track 11  accurately ripped (confidence 3)  [D730495A]  (AR v2)

All tracks accurately ripped

End of status report

---- CUETools DB Plugin V2.1.3

[CTDB TOCID: pue47BxHAGE05vunrk6hrF4Kg20-] found, Submit result: pue47BxHAGE05vunrk6hrF4Kg20- has been confirmed
[44c4efc6] (7/7) Accurately ripped

==== Log checksum 58BF6068400B64210E973002F07023C8C93708366C65CA847C7036110F0462DF ====

Отчёт auCDtect Task manager:

Код:

-----------------------

DON'T MODIFY THIS FILE

-----------------------

PERFORMER: auCDtect Task Manager, ver. 1.6.0 RC1 build 1.6.0.1
Copyright (c) 2008-2010 y-soft. All rights reserved
http://y-soft.org

ANALYZER: auCDtect: CD records authenticity detector, version 0.8.2
Copyright (c) 2004 Oleg Berngardt. All rights reserved.
Copyright (c) 2004 Alexander Djourik. All rights reserved.

FILE: Kill Devil Hill - Revolution Rise.flac
  Size: 439858200 Hash: 557EE36D6F55A0D0902F8A37E8896042 Accuracy: -m0
  Conclusion: CDDA 100%
  Signature: 2BB4E03EDDE670E873B683D179F3122993D632E0
Детали торрента:
Название:Kill Devil Hill - Revolution Rise (2013) [FLAC|Lossless]<Heavy Metal, Hard Rock>
Дата добавления:02 Сен 2014 15:20:04
Размер:420 MB
Раздают:
Качают:0
Форум:Metal (Lossless)

All rights reserved © 2015-2018