TORRENTS45.XYZ

Скачать Звездные войны Владимира Челомея (2014) HDTVRip


Звездные войны Владимира Челомея (2014) HDTVRip
Режиссер / Телекомпания: Россия, ТК Россия 1
Год выпуска: 2014
Жанр: Документальный

Описание:
"Сегодня, 25 июня 1974 года, в СССР осуществлен запуск ракеты-носителя Протон, которая вывела на орбиту советскую научную космическую станцию "Салют-3". Это сообщение ТАСС было опубликовано во всех газетах, передано по радио и телевидению. Правду о том, что было запущено на орбиту, знали только специалисты, Генеральный штаб вооруженных сил и Пентагон. Тяжелая стратегическая межконтинентальная ракета вывела в космос боевую разведывательную орбитальную станцию "Алмаз" для проведения пробных стрельб из бортового орудия. Это и сегодня звучит как фантастика. Но конструктор этой станции и этой ракеты, дважды Герой Социалистического труда, лауреат Ленинской и Государственных премий, академик Владимир Николаевич Челомей, умел удивлять и свою страну, и мир.

Продолжительность: 00:44:22
Качество видео: HDTVRip

Перевод: Отсутствует

Видеокодек: Xvid
Битрейт видео: ~1450 kb/s
Размер кадра: 720x400
Аудиокодек: MP3
Битрейт аудио: 2 ch, 192 kb/s CBR
Сэмпл: Скачать

MediaInfo

General
Complete name : D:\Dowloands\Видео\Zvezdnye.voiny.Vladimira.Chalomeja.2014.HDTVRip.by.GeneralFilm.avi
Format : AVI
Format/Info : Audio Video Interleave
File size : 526 MiB
Duration : 44mn 32s
Overall bit rate : 1 651 Kbps
Writing application : VirtualDubMod 1.5.10.3 | www.virtualdub-fr.org || (build 2550/release)
Writing library : VirtualDubMod build 2550/release

Video
ID : 0
Format : MPEG-4 Visual
Format profile : Advanced Simple@L5
Format settings, BVOP : 1
Format settings, QPel : No
Format settings, GMC : No warppoints
Format settings, Matrix : Default (H.263)
Codec ID : XVID
Codec ID/Hint : XviD
Duration : 44mn 32s
Bit rate : 1 450 Kbps
Width : 720 pixels
Height : 400 pixels
Display aspect ratio : 16:9
Frame rate : 25.000 fps
Color space : YUV
Chroma subsampling : 4:2:0
Bit depth : 8 bits
Scan type : Progressive
Compression mode : Lossy
Bits/(Pixel*Frame) : 0.201
Stream size : 462 MiB (88%)
Writing library : XviD 73

Audio
ID : 1
Format : MPEG Audio
Format version : Version 1
Format profile : Layer 3
Codec ID : 55
Codec ID/Hint : MP3
Duration : 44mn 32s
Bit rate mode : Constant
Bit rate : 192 Kbps
Channel(s) : 2 channels
Sampling rate : 48.0 KHz
Compression mode : Lossy
Stream size : 61.2 MiB (12%)
Alignment : Aligned on interleaves
Interleave, duration : 40 ms (1.00 video frame)
Interleave, preload duration : 504 ms
Writing library : LAME3.99r
Encoding settings : -m s -V 4 -q 2 -lowpass 18.6 -b 192
Скриншоты:


Детали торрента:
Название:Звездные войны Владимира Челомея (2014) HDTVRip
Дата добавления:04 Июл 2014 12:02:42
Размер:526 MB
Раздают:2
Качают:0
Форум:Космос

All rights reserved © 2015-2018